微博 微信

Hao4K影音

电影频道
电影封面:
片  名: 忌日快乐4k
电影分类: 恐怖 惊悚 悬疑 
国  家: 美国 
年  代: 2017年
分 辨 率: 4K(3840x2160)
电影格式: MKV|REMUX 
画质标准: HDR 
音质编码: DTS-HD Master Audio 
电影声道: 5.1声道 
帧数/FPS: 23.976 帧
电影语言: 英文原版 
资源大小: 20.61 GB
导  演: 克里斯托弗·兰登
豆瓣评分: 7.1 分
中文字幕: /thread-56257-1-1.html
剧情简介:  生日当晚惨遭杀害的泰莉,一觉醒来仍然生勾勾,她以为只是生日前夕的恶梦,怎知醒来后的经历跟梦境完全一样,生日当晚再惨遭杀害,然后又一觉醒来…究竟是上天的大礼,还是死神的玩笑,她竟然无限次被杀,再无限次重返生日早上!泰莉醒完又死,死完又醒,她唯一可以做的,就是找出杀自己的神秘凶手,否则会被困在生日和死忌的无限轮回,直到永远…
死日快乐 / 吓到半死 / 死亡无限LOOP(港) / 忌日快乐4k Happy.Death.Day.2017.2160p.WEBRip.x265.10bit.HDR.DTS-HD.MA.5.1 4k电影信息
  1. Video
  2. ID : 1
  3. Format : HEVC
  4. Format/Info : High Efficiency Video Coding
  5. Format profile : Main 10@L5@Main
  6. HDR format : SMPTE ST 2086, HDR10 compatible
  7. Codec ID : V_MPEGH/ISO/HEVC
  8. Duration : 1 h 36 min
  9. Bit rate : 23.7 Mb/s
  10. Width : 3 840 pixels
  11. Height : 1 608 pixels
  12. Display aspect ratio : 2.40:1
  13. Frame rate mode : Constant
  14. Frame rate : 23.976 (24000/1001) FPS
  15. Color space : YUV
  16. Chroma subsampling : 4:2:0
  17. Bit depth : 10 bits
  18. Bits/(Pixel*Frame) : 0.160
  19. Stream size : 15.9 GiB (77%)
  20. Default : Yes
  21. Forced : No
  22. Color range : Limited
  23. Color primaries : BT.2020
  24. Transfer characteristics : PQ
  25. Matrix coefficients : BT.2020 non-constant
  26. Mastering display color primaries : Display P3
  27. Mastering display luminance : min: 0.0050 cd/m2, max: 1000 cd/m2
  28. Maximum Content Light Level : 464 cd/m2
  29. Maximum Frame-Average Light Level : 161 cd/m2

  30. Audio #1
  31. ID : 2
  32. Format : DTS XLL
  33. Format/Info : Digital Theater Systems
  34. Commercial name : DTS-HD Master Audio
  35. Codec ID : A_DTS
  36. Duration : 1 h 36 min
  37. Bit rate mode : Variable
  38. Bit rate : 3 886 kb/s
  39. Channel(s) : 6 channels
  40. Channel layout : C L R Ls Rs LFE
  41. Sampling rate : 48.0 kHz
  42. Frame rate : 93.750 FPS (512 SPF)
  43. Bit depth : 24 bits
  44. Compression mode : Lossless
  45. Delay relative to video : 1 s 91 ms
  46. Stream size : 2.61 GiB (13%)
  47. Language : English
  48. Default : Yes
  49. Forced : No

  50. Audio #2
  51. ID : 3
  52. Format : DTS
  53. Format/Info : Digital Theater Systems
  54. Codec ID : A_DTS
  55. Duration : 1 h 36 min
  56. Bit rate mode : Constant
  57. Bit rate : 1 509 kb/s
  58. Channel(s) : 6 channels
  59. Channel layout : C L R Ls Rs LFE
  60. Sampling rate : 48.0 kHz
  61. Frame rate : 93.750 FPS (512 SPF)
  62. Bit depth : 24 bits
  63. Compression mode : Lossy
  64. Delay relative to video : 1 s 91 ms
  65. Stream size : 1.01 GiB (5%)
  66. Language : English
  67. Default : No
  68. Forced : No

  69. Audio #3
  70. ID : 4
  71. Format : DTS
  72. Format/Info : Digital Theater Systems
  73. Codec ID : A_DTS
  74. Duration : 1 h 36 min
  75. Bit rate mode : Constant
  76. Bit rate : 768 kb/s
  77. Channel(s) : 6 channels
  78. Channel layout : C L R Ls Rs LFE
  79. Sampling rate : 48.0 kHz
  80. Frame rate : 93.750 FPS (512 SPF)
  81. Bit depth : 24 bits
  82. Compression mode : Lossy
  83. Delay relative to video : 1 s 91 ms
  84. Stream size : 528 MiB (3%)
  85. Language : French
  86. Default : No
  87. Forced : No

  88. Audio #4
  89. ID : 5
  90. Format : DTS
  91. Format/Info : Digital Theater Systems
  92. Codec ID : A_DTS
  93. Duration : 1 h 36 min
  94. Bit rate mode : Constant
  95. Bit rate : 768 kb/s
  96. Channel(s) : 6 channels
  97. Channel layout : C L R Ls Rs LFE
  98. Sampling rate : 48.0 kHz
  99. Frame rate : 93.750 FPS (512 SPF)
  100. Bit depth : 24 bits
  101. Compression mode : Lossy
  102. Delay relative to video : 1 s 91 ms
  103. Stream size : 528 MiB (3%)
  104. Language : Spanish
  105. Default : No
  106. Forced : No

  107. Text #1
  108. ID : 6
  109. Format : PGS
  110. Muxing mode : zlib
  111. Codec ID : S_HDMV/PGS
  112. Codec ID/Info : Picture based subtitle format used on BDs/HD-DVDs
  113. Duration : 1 h 29 min
  114. Bit rate : 40.2 kb/s
  115. Count of elements : 2894
  116. Stream size : 25.6 MiB (0%)
  117. Language : English
  118. Default : No
  119. Forced : No

  120. Text #2
  121. ID : 7
  122. Format : PGS
  123. Muxing mode : zlib
  124. Codec ID : S_HDMV/PGS
  125. Codec ID/Info : Picture based subtitle format used on BDs/HD-DVDs
  126. Duration : 1 h 34 min
  127. Bit rate : 28.0 kb/s
  128. Count of elements : 2388
  129. Stream size : 19.0 MiB (0%)
  130. Language : French
  131. Default : No
  132. Forced : No

  133. Text #3
  134. ID : 8
  135. Format : PGS
  136. Muxing mode : zlib
  137. Codec ID : S_HDMV/PGS
  138. Codec ID/Info : Picture based subtitle format used on BDs/HD-DVDs
  139. Duration : 1 h 34 min
  140. Bit rate : 1 507 b/s
  141. Count of elements : 99
  142. Stream size : 1.02 MiB (0%)
  143. Language : French
  144. Default : No
  145. Forced : No

  146. Text #4
  147. ID : 9
  148. Format : PGS
  149. Muxing mode : zlib
  150. Codec ID : S_HDMV/PGS
  151. Codec ID/Info : Picture based subtitle format used on BDs/HD-DVDs
  152. Duration : 1 h 34 min
  153. Bit rate : 27.4 kb/s
  154. Count of elements : 2332
  155. Stream size : 18.6 MiB (0%)
  156. Language : Spanish
  157. Default : No
  158. Forced : No

  159. Text #5
  160. ID : 10
  161. Format : PGS
  162. Muxing mode : zlib
  163. Codec ID : S_HDMV/PGS
  164. Codec ID/Info : Picture based subtitle format used on BDs/HD-DVDs
  165. Duration : 1 h 34 min
  166. Bit rate : 1 191 b/s
  167. Count of elements : 73
  168. Stream size : 823 KiB (0%)
  169. Language : Spanish
  170. Default : No
  171. Forced : No
复制代码

死日快乐 / 吓到半死 / 死亡无限LOOP(港) / 忌日快乐4k Happy.Death.Day.2017.2160p.WEBRip.x265.10bit.HDR.DTS-HD.MA.5.1 4k电影下载
忌日快乐4k Happy.Death.Day.2017.2160p.WEBRip.x265.10bit.HDR.DTS-HD.MA.5.1-GASMASK  (4K 2160p 20.61GB)
[Hao4K]忌日快乐4k_Happy.Death.Day.2017.2160p.WEBRip.x265.10bit.HDR.DTS-HD.MA.torrent (52.11 KB, 售价: 2 K币)
回复

使用道具 举报

   发表回复

您需要登录后才可以回帖 登录 | 立即注册

返回列表 本版积分规则

  • 在线客服

  • 返回顶部