专注4K家庭影音, 服务千万家庭影音发烧友!

[4k演示视频] 三星200寸电视试机专用,变形金刚1~4精彩合集【百度云】

 
2867215 发表于 2016-3-14 00:02:13 | 显示全部楼层
003523jnffs5pv70lsvvxb.jpg

003511rt5qg4zgenkwje3w.jpg

003520majx0xtd4zc3d3ax.jpg

003515fvvmd4fseoszsvgs.jpg

003516lue0e9uawg1l0ctm.jpg

003519wxq2xqqx6v56oxwo.jpg

[三星专用]大气蓬勃 感受4K家庭影院的震撼(变形金刚4+3预告片)H265/1.3G/百度


General
ID                             : 0 (0x0)
Complete name                  : E:K中国UHD_ENT_Transformer_Quad.ts
Format                         : MPEG-TS
File size                      : 1.38 GiB
Duration                       : 3mn 51s
Overall bit rate mode          : Constant
Overall bit rate               : 51.4 Mbps

Video
ID                             : 257 (0x101)
Menu ID                        : 1 (0x1)
Format                         : HEVC
Format/Info                    : High Efficiency Video Coding
Codec ID                       : 36
Duration                       : 3mn 50s
Bit rate                       : 48.7 Mbps
Stream size                    : 1.31 GiB (94%)

Audio
ID                             : 258 (0x102)
Menu ID                        : 1 (0x1)
Format                         : AAC
Format/Info                    : Advanced Audio Codec
Format version                 : Version 4
Format profile                 : LC
Muxing mode                    : ADTS
Codec ID                       : 15
Duration                       : 3mn 50s
Bit rate mode                  : Constant
Bit rate                       : 126 Kbps
Channel(s)                     : 2 channels
Channel positions              : Front: L R
Sampling rate                  : 48.0 KHz
Compression mode               : Lossy
Stream size                    : 3.45 MiB (0%)

这应该是 变形金刚4+3+2+1混搭的4K演示片.

清晰度不错,无论是细节还是整体画面感,都很能代表4k电影的顶级水准。


三星200寸电视试机专用,变形金刚1~4精彩合集【百度云】下载:
三星200寸电视试机专用,变形金刚1~4精彩合集【百度云】.txt
(270 Bytes)

评分

参与人数 1活跃度 +3 收起 理由
jsl110123 + 3

查看全部评分

回复

使用道具 举报

发烧友评论3860

正序浏览
Geronr28 发表于 2018-3-30 04:56:58 | 显示全部楼层
Our team is a unique producer of quality fake documents.
We offer only original high-quality fake passports, driver's licenses, ID cards, stamps and other products for a number of countries like:
USA, Australia, Belgium, Brazil, Canada, Italy, Finland, France, Germany, Netherlands, Spain, United Kingdom. This list is not full.

To get the additional information and place the order just visit our website:



http://www.buysellfakepassport.cc www. buysellfakepassport.cc


>> Contact e-mails:


General support: support@buysellfakepassport.cc


Technical support: tech@buysellfakepassport.cc


-----------------------------
Keywords:

sale false/fake passports of Afghanistan
sale false/fake passports of Albania
sale false/fake passports of Algeria
sale false/fake passports of Andorra
sale false/fake passports of Angola
sale false/fake passports of Antigua & Deps
sale false/fake passports of Argentina
sale false/fake passports of Armenia
sale false/fake passports of Australia
sale false/fake passports of Austria
sale false/fake passports of Azerbaijan
sale false/fake passports of Bahamas
sale false/fake passports of Bahrain
sale false/fake passports of Bangladesh
sale false/fake passports of Barbados
sale false/fake passports of Belarus
sale false/fake passports of Belgium
sale false/fake passports of Belize
sale false/fake passports of Benin
sale false/fake passports of Bhutan
sale false/fake passports of Bolivia
sale false/fake passports of Bosnia Herzegovina
sale false/fake passports of Botswana
sale false/fake passports of Brazil
sale false/fake passports of Brunei
sale false/fake passports of Bulgaria
sale false/fake passports of Burkina
sale false/fake passports of Burundi
sale false/fake passports of Cambodia
sale false/fake passports of Cameroon
sale false/fake passports of Canada
sale false/fake passports of Cape Verde
sale false/fake passports of Central African Rep
sale false/fake passports of Chad
sale false/fake passports of Chile
sale false/fake passports of China
sale false/fake passports of Colombia
sale false/fake passports of Comoros
sale false/fake passports of Congo
sale false/fake passports of Congo Democratic Rep
sale false/fake passports of Costa Rica
sale false/fake passports of Croatia
sale false/fake passports of Cuba
sale false/fake passports of Cyprus
sale false/fake passports of Czech Republic
sale false/fake passports of Denmark
sale false/fake passports of Djibouti
sale false/fake passports of Dominica
sale false/fake passports of Dominican Republic
sale false/fake passports of East Timor
sale false/fake passports of Ecuador
sale false/fake passports of Egypt
sale false/fake passports of El Salvador
sale false/fake passports of Equatorial Guinea
sale false/fake passports of Eritrea
sale false/fake passports of Estonia
sale false/fake passports of Ethiopia
sale false/fake passports of Fiji
sale false/fake passports of Finland
sale false/fake passports of France
sale false/fake passports of Gabon
sale false/fake passports of Gambia
sale false/fake passports of Georgia
sale false/fake passports of Germany
sale false/fake passports of Ghana
sale false/fake passports of Greece
sale false/fake passports of Grenada
sale false/fake passports of Guatemala
sale false/fake passports of Guinea
sale false/fake passports of Guinea-Bissau
sale false/fake passports of Guyana
sale false/fake passports of Haiti
sale false/fake passports of Honduras
sale false/fake passports of Hungary
sale false/fake passports of Iceland
sale false/fake passports of India
sale false/fake passports of Indonesia
sale false/fake passports of Iran
sale false/fake passports of Iraq
sale false/fake passports of Ireland Republic
sale false/fake passports of Israel
sale false/fake passports of Italy
sale false/fake passports of Ivory Coast
sale false/fake passports of Jamaica
sale false/fake passports of Japan
sale false/fake passports of Jordan
sale false/fake passports of Kazakhstan
sale false/fake passports of Kenya
sale false/fake passports of Kiribati
sale false/fake passports of Korea North
sale false/fake passports of Korea South
sale false/fake passports of Kosovo
sale false/fake passports of Kuwait
sale false/fake passports of Kyrgyzstan
sale false/fake passports of Laos
sale false/fake passports of Latvia
sale false/fake passports of Lebanon
sale false/fake passports of Lesotho
sale false/fake passports of Liberia
sale false/fake passports of Libya
sale false/fake passports of Liechtenstein
sale false/fake passports of Lithuania
sale false/fake passports of Luxembourg
sale false/fake passports of Macedonia
sale false/fake passports of Madagascar
sale false/fake passports of Malawi
sale false/fake passports of Malaysia
sale false/fake passports of Maldives
sale false/fake passports of Mali
sale false/fake passports of Malta
sale false/fake passports of Marshall Islands
sale false/fake passports of Mauritania
sale false/fake passports of Mauritius
sale false/fake passports of Mexico
sale false/fake passports of Micronesia
sale false/fake passports of Moldova
sale false/fake passports of Monaco
sale false/fake passports of Mongolia
sale false/fake passports of Montenegro
sale false/fake passports of Morocco
sale false/fake passports of Mozambique
sale false/fake passports of Myanmar, Burma
sale false/fake passports of Namibia
sale false/fake passports of Nauru
sale false/fake passports of Nepal
sale false/fake passports of Netherlands
sale false/fake passports of New Zealand
sale false/fake passports of Nicaragua
sale false/fake passports of Niger
sale false/fake passports of Nigeria
sale false/fake passports of Norway
sale false/fake passports of Oman
sale false/fake passports of Pakistan
sale false/fake passports of Palau
sale false/fake passports of Panama
sale false/fake passports of Papua New Guinea
sale false/fake passports of Paraguay
sale false/fake passports of Peru
sale false/fake passports of Philippines
sale false/fake passports of Poland
sale false/fake passports of Portugal
sale false/fake passports of Qatar
sale false/fake passports of Romania
sale false/fake passports of Russian Federation
sale false/fake passports of Rwanda
sale false/fake passports of St Kitts & Nevis
sale false/fake passports of St Lucia
sale false/fake passports of Saint Vincent & the Grenadines
sale false/fake passports of Samoa
sale false/fake passports of San Marino
sale false/fake passports of Sao Tome & Principe
sale false/fake passports of Saudi Arabia
sale false/fake passports of Senegal
sale false/fake passports of Serbia
sale false/fake passports of Seychelles
sale false/fake passports of Sierra Leone
sale false/fake passports of Singapore
sale false/fake passports of Slovakia
sale false/fake passports of Slovenia
sale false/fake passports of Solomon Islands
sale false/fake passports of Somalia
sale false/fake passports of South Africa
sale false/fake passports of Spain
sale false/fake passports of Sri Lanka
sale false/fake passports of Sudan
sale false/fake passports of Suriname
sale false/fake passports of Swaziland
sale false/fake passports of Sweden
sale false/fake passports of Switzerland
sale false/fake passports of Syria
sale false/fake passports of Taiwan
sale false/fake passports of Tajikistan
sale false/fake passports of Tanzania
sale false/fake passports of Thailand
sale false/fake passports of Togo
sale false/fake passports of Tonga
sale false/fake passports of Trinidad & Tobago
sale false/fake passports of Tunisia
sale false/fake passports of Turkey
sale false/fake passports of Turkmenistan
sale false/fake passports of Tuvalu
sale false/fake passports of Uganda
sale false/fake passports of Ukraine
sale false/fake passports of United Arab Emirates
sale false/fake passports of United Kingdom
sale false/fake passports of United States
sale false/fake passports of Uruguay
sale false/fake passports of Uzbekistan
sale false/fake passports of Vanuatu
sale false/fake passports of Vatican City
sale false/fake passports of Venezuela
sale false/fake passports of Vietnam
sale false/fake passports of Yemen
sale false/fake passports of Zambia
sale false/fake passports of Zimbabwe
================================
Novelty Alabama ID Novelty Alaska ID Novelty Alberta ID Novelty Arizona ID Novelty Arkansas ID Novelty Australian Capital ID Novelty British Columbia ID Novelty California ID Novelty Colorado ID Novelty Connecticut ID Novelty Delaware ID Novelty Florida ID Novelty Georgia ID Novelty Hawaii ID Novelty Queensland ID Novelty Rhode Island ID
回复 支持 反对

使用道具 举报

ppsftj 发表于 2018-7-5 22:20:07 | 显示全部楼层


  
7 Z2 i/ l0 o; j$ W
, p1 A5 ~) y, e0 q  c8 Y
  

2 }# `0 ?9 ?0 v
  

/ S" T  j( R/ k. F/ _& C' C
  

) Z7 G0 w+ M$ ^+ ?* j) i' L" u
  


  
# G9 m# l7 O* R4 ]
7 T3 R* F$ Q3 z9 t3 T' R
[三星专用]大气蓬勃 感受4K家庭影院的震撼(变形金刚4+3预告片)H265/1.3G/百度
' x9 ]- ]& j0 L9 v0 G! u. C

General. u, D- G5 B$ M& }! c  h
ID                             : 0 (0x0)1 E, I, v4 w, _
Complete name                  : E:K中国UHD_ENT_Transformer_Quad.ts
Format                         : MPEG-TS/ `" B6 d1 M6 A; o$ ]. X
File size                      : 1.38 GiB' R2 l( w7 O( p
Duration                       : 3mn 51s! S  S6 l% u9 R* Q; I' c4 y  h) H" T
Overall bit rate mode          : Constant& m# t: C0 ^; X. @
Overall bit rate               : 51.4 Mbps

Video
ID                             : 257 (0x101)+ F8 N) w6 ^+ o! w4 u
Menu ID                        : 1 (0x1)4 n2 H: S2 f! O8 m
Format                         : HEVC
Format/Info                    : High Efficiency Video Coding% T0 g( x$ A: q/ U. K2 u
Codec ID                       : 36
Duration                       : 3mn 50s
Bit rate                       : 48.7 Mbps
Stream size                    : 1.31 GiB (94%)3 R+ t; Z7 @; i: ^' P$ z

Audio
ID                             : 258 (0x102)
Menu ID                        : 1 (0x1)$ d  m# }+ K% c9 y3 @
Format                         : AAC
Format/Info                    : Advanced Audio Codec
Format version                 : Version 40 n/ C, h# y( P( {9 g- h1 c
Format profile                 : LC
Muxing mode                    : ADTS4 X7 l5 l) F; C1 U
Codec ID                       : 15
Duration                       : 3mn 50s- p: U, F* L5 \9 n; d1 C  u- i
Bit rate mode                  : Constant1 m7 e# |+ u" A$ q2 B
Bit rate                       : 126 Kbps* U2 a5 N% g$ M: [  t. f
Channel(s)                     : 2 channels
Channel positions              : Front: L R
Sampling rate                  : 48.0 KHz
Compression mode               : Lossy% _6 M9 R: T5 [6 I5 Z7 V* J6 G
Stream size                    : 3.45 MiB (0%)3 A* L0 X" j- A2 v' s

这应该是 变形金刚4+3+2+1混搭的4K演示片.* n" U! g: M1 T* t
4 ?% Z8 v9 n5 S0 X! {2 w
清晰度不错,无论是细节还是整体画面感,都很能代表4k电影的顶级水准。
, d0 b1 @4 p0 T3 J

三星200寸电视试机专用,变形金刚1~4精彩合集
回复 支持 反对

使用道具 举报

king7guai 发表于 2016-3-14 11:39:09 | 显示全部楼层
啥也不说了,感谢楼主在hao4k分享哇!
回复 支持 反对

使用道具 举报

度春秋 发表于 2016-3-26 00:31:56 | 显示全部楼层
好大的场景呀。看看见
回复 支持 反对

使用道具 举报

钢铁侠 发表于 2016-3-28 23:56:01 | 显示全部楼层
确实是难得好帖啊,顶先
回复 支持 反对

使用道具 举报

a啊星 发表于 2016-3-29 21:25:18 | 显示全部楼层
啥也不说了,感谢楼主在hao4k分享哇!
回复 支持 反对

使用道具 举报

Desperadozero 发表于 2016-4-3 22:49:27 | 显示全部楼层
啥也不说了,感谢楼主在hao4k分享哇!
回复 支持 反对

使用道具 举报

zly1979 发表于 2016-4-5 09:40:51 | 显示全部楼层
啥也不说了,感谢楼主在hao4k分享哇!
回复 支持 反对

使用道具 举报

oldnight 发表于 2016-4-8 09:36:56 | 显示全部楼层
试试看,感谢分享!
回复 支持 反对

使用道具 举报

px020313 发表于 2016-4-8 19:44:18 | 显示全部楼层
啥也不说了,感谢楼主在hao4k分享哇!
回复 支持 反对

使用道具 举报

honger 发表于 2016-4-9 09:30:19 | 显示全部楼层
三星200寸电视试机专用,变形金刚1~4精彩合集【百度云】
- 本文出自hao4k论坛,4k视频原文地址:http://www.hao4k.cn/thread-308-1-1.html
回复 支持 反对

使用道具 举报

930131193 发表于 2016-4-9 12:16:16 | 显示全部楼层
vb r来看看好不好
回复 支持 反对

使用道具 举报

930131193 发表于 2016-4-9 12:16:47 | 显示全部楼层
好的,脸色有个人中气
回复 支持 反对

使用道具 举报

您需要登录后才可以回帖 登录 | 立即注册

本版积分规则


11关注

61粉丝

346帖子

在线客服

在线客服

服务时间 9:00—18:00

返回顶部

关注微信公众号第一时间推送精彩

官方微信

手机访问

Hao4K影音

专注4k家庭影音,提供家庭影音社区,家庭影音器材库,影音问答平台,影音商城,服务千万家庭影音用户。

本站内容部分由用户自主分享和转载自互联网,转载目的在于传递更多信息,并不代表本网赞同其观点和对其真实性负责。

如有侵权、违反国家法律政策行为,请联系我们,我们会第一时间及时清除和处理!

举报反馈邮箱:admin@hao4k.cn

Copyright  2019-2020  Hao4K影音粤公网安备 44030302001429号    ( 粤ICP备18155646号-1 )|网站地图