• 手机版
    手机扫一扫访问
    好4K手机版
  • 公众号
    微信扫一扫关注
    好4K公众号
sbcaonima 发表于 2019-2-24 16:45 | 显示全部楼层
cap_THE BEST OF BEIJING 最好的北京_00_00_56_09.jpg cap_THE BEST OF BEIJING 最好的北京_00_01_09_11.jpg cap_THE BEST OF BEIJING 最好的北京_00_01_43_21.jpg cap_THE BEST OF BEIJING 最好的北京_00_01_02_10.jpg cap_THE BEST OF BEIJING 最好的北京_00_00_35_08.jpg cap_THE BEST OF BEIJING 最好的北京_00_02_22_14.jpg cap_THE BEST OF BEIJING 最好的北京_00_05_42_19.jpg cap_THE BEST OF BEIJING 最好的北京_00_03_17_13.jpg cap_THE BEST OF BEIJING 最好的北京_00_02_08_15.jpg cap_THE BEST OF BEIJING 最好的北京_00_05_26_18.jpg cap_THE BEST OF BEIJING 最好的北京_00_04_03_17.jpg
  Y& l  l+ F2 |% s; T+ L- q2 N  ~' b4 L# q8 v

/ _/ G) `/ m. B* d" ?( f  _, @info, [& w% a4 n- F5 P; z  ~* ^$ z
General
: o; n! O+ L& d- mUnique ID                      : 245851523139804696104953542011941335499 (0xB8F547F18126819C3B8A79D803CCB1CB)
- L& c5 J% U+ ~6 zComplete name                  : C:\Users\\Desktop\THE BEST OF BEIJING 4K.mkv2 p" O' G/ Q9 i+ i
Format                         : Matroska8 D7 _5 T- Q( n& t  j( G' G
Format version                 : Version 4 / Version 2
2 _) C- Y- S* _, _File size                      : 267 MiB3 m5 ^7 q: S) {( I5 U4 K& W* d
Duration                       : 7 min 15 s
3 V: v# i5 M  H& K* pOverall bit rate               : 5 150 kb/s
% m! d5 v! }6 Q' h! \Encoded date                   : UTC 2019-02-24 07:31:34
, q3 W6 i" E" m5 E  MWriting application            : mkvmerge v25.0.0 ('Prog Noir') 64-bit
( U1 Z" o/ z0 g5 k" {# ~Writing library                : libebml v1.3.6 + libmatroska v1.4.9 / Lavf58.12.1003 t6 }: |8 ~6 t& }
) C/ K6 F4 Q) w, x7 G
Video1 @: S* o$ g8 z/ e4 F9 B& M- ~
ID                             : 1
2 Q7 G8 b% B" N4 aFormat                         : HEVC
6 i) d: |3 u4 i4 }5 L: BFormat/Info                    : High Efficiency Video Coding4 X, N. |) s* G  @3 {" ]
Format profile                 : Main@L5@Main8 B0 s$ ]' W1 K: F' J
Codec ID                       : V_MPEGH/ISO/HEVC
0 O7 r9 G- j4 O* U) kDuration                       : 7 min 15 s
( a3 S* w! z; t; e5 bBit rate                       : 3 513 kb/s
8 l. }. ^+ z7 YWidth                          : 3 840 pixels" n8 s. ?" V$ C
Height                         : 1 620 pixels
. g2 L. \  I4 ]& o. KDisplay aspect ratio           : 2.40:1
  z! f9 W% }' I: d$ S, _; yFrame rate mode                : Variable
! ~  Z. O' A, ~% ]Frame rate                     : 25.000 FPS) @& `/ R/ Z. n3 G- L
Original frame rate            : 26.737 FPS
: ^5 x* ^1 S3 ]3 {Color space                    : YUV
4 f, Z: |0 J8 W1 {$ }+ W6 }% kChroma subsampling             : 4:2:0
6 L" Y* e. G' eBit depth                      : 8 bits
( B. O0 e. ~; {5 u. z1 SBits/(Pixel*Frame)             : 0.023
" {# g: G  V2 i+ u' bStream size                    : 182 MiB (68%)4 s" L" K4 M) G' V; {8 s% Y
Writing library                : x265 1.9:[Windows][GCC 4.9.3][32 bit] 8bit. Y5 S" e; D! p. Y; s
Encoding settings              : wpp / ctu=64 / min-cu-size=8 / max-tu-size=32 / tu-intra-depth=1 / tu-inter-depth=1 / me=1 / subme=2 / merange=57 / no-rect / no-amp / max-merge=2 / temporal-mvp / no-early-skip / rdpenalty=0 / no-tskip / no-tskip-fast / strong-intra-smoothing / no-lossless / no-cu-lossless / no-constrained-intra / no-fast-intra / open-gop / no-temporal-layers / interlace=0 / keyint=250 / min-keyint=25 / scenecut=40 / rc-lookahead=20 / lookahead-slices=8 / bframes=4 / bframe-bias=0 / b-adapt=2 / ref=3 / limit-refs=3 / no-limit-modes / weightp / no-weightb / aq-mode=1 / qg-size=32 / aq-strength=1.00 / cbqpoffs=0 / crqpoffs=0 / rd=3 / psy-rd=2.00 / rdoq-level=0 / psy-rdoq=0.00 / signhide / deblock / sao / no-sao-non-deblock / b-pyramid / cutree / no-intra-refresh / rc=abr / bitrate=3947 / qcomp=0.60 / qpmin=0 / qpmax=51 / qpstep=4 / ipratio=1.40 / pbratio=1.30
+ I6 z/ r3 r, ]- b3 V% E+ wLanguage                       : English
9 S- q. D; K+ ]5 kDefault                        : Yes! v; ~7 n/ C; ^/ I- z( u7 E5 @
Forced                         : No
5 b2 W, B" d! P& t" q* u
; O  C  ]6 y. C4 k0 [Audio #1
2 E) ?, _3 G2 h" JID                             : 22 A' h4 D( _& b$ n3 Y% v
Format                         : DTS
# V+ k4 D" q1 m# bFormat/Info                    : Digital Theater Systems
0 B' v2 U- R3 [0 iCodec ID                       : A_DTS
/ B) W8 D  ~, T4 ]% l8 Y) P1 d! lDuration                       : 7 min 15 s1 ~) s- [1 e2 W1 y2 v6 i1 |& L1 G
Bit rate mode                  : Constant
" \2 g; b# B# \) |& L/ b- YBit rate                       : 1 510 kb/s$ R# }; Q. D- R* m6 F
Channel(s)                     : 6 channels
: ^6 k% r: |5 nChannel positions              : Front: L C R, Side: L R, LFE
8 P$ Z/ ?$ [; ^+ \Sampling rate                  : 48.0 kHz; U" X5 N' U# L4 C
Frame rate                     : 93.750 FPS (512 SPF)5 R1 h% q' j5 g# P* k) k4 B
Bit depth                      : 24 bits
+ l: a7 s5 K, SCompression mode               : Lossy" |4 ]/ h5 ]# U' \
Delay relative to video        : 7 ms3 t: n0 V) s/ U, n+ O& t, h
Stream size                    : 78.3 MiB (29%)/ q2 E, g4 |" C5 G. S: d! v
Language                       : Chinese3 Y" h8 W' h  D1 G% h& A- P) `% K
Default                        : No0 Y5 R! m6 `8 p* h: |! ^0 n% k
Forced                         : No
& K# l; q* U* Y2 O0 `  M
" N+ Q4 W' t' f. D5 RAudio #2, z$ q' |5 s& E( l. E# `( Q5 ~; l
ID                             : 39 l) d2 t% j- m8 |- B, ^
Format                         : Opus
! D1 m: e7 L; u, aCodec ID                       : A_OPUS
: J; L1 c" R$ z3 I4 oDuration                       : 7 min 15 s
! W# R+ n7 B4 L3 eBit rate                       : 124 kb/s
4 n1 w  H& r* N( }; z& MChannel(s)                     : 2 channels
+ Y0 V5 X/ s/ K) f. RChannel positions              : Front: L R
3 Y% [( I. d* @0 wSampling rate                  : 48.0 kHz1 V7 d& H) v( n2 n$ b: f* ?+ l
Frame rate                     : 50.000 FPS (960 SPF)) N- u& d# z' |5 c- S" p
Compression mode               : Lossy7 r0 i$ w8 m" B; r/ K* ?
Delay relative to video        : 8 ms
/ B1 j7 Z4 X0 g( T/ V" O' I1 }Stream size                    : 6.41 MiB (2%)
2 S# p, C2 D0 ^# Z1 }3 fLanguage                       : Chinese
: w0 s. E2 @7 y5 KDefault                        : Yes3 y3 J! b2 c1 ?- p
Forced                         : No1 B, R+ l: K/ f- [1 @( f# c; J- g
) j& u* _. _; ?9 q  D
北京4K宣传片 The Best Of Beijing 下载自youtube,youtube上已经火了。4k极限画质下的北京,感受没有雾霾的帝都。
/ G! K9 V2 M  W$ k# i/ S
游客,如果您要查看本帖隐藏内容请回复
. u* {' z! {) T- @
参与人数 1贡献值 +1 收起 理由
hao4k + 1 赞一个!

查看全部评分总评分 : 贡献值 +1

回复

使用道具 举报

精彩评论666

bomexchina 发表于 2019-3-24 10:08 | 显示全部楼层
美丽首都,感谢楼主分享
回复 支持 1 反对 0

使用道具 举报

wongmin 发表于 2019-7-17 04:19 | 显示全部楼层
多谢分享。
回复

使用道具 举报

wongmin 发表于 2019-7-17 04:18 | 显示全部楼层
由衷感谢Hao4k平台提供4K资源,可以试试我家的私人影院了。
回复 支持 反对

使用道具 举报

liujun16 发表于 2019-7-16 21:29 | 显示全部楼层
感受美丽首都、谢谢无私楼主
回复 支持 反对

使用道具 举报

66122166 发表于 2019-7-16 15:13 | 显示全部楼层
由衷感谢Hao4k平台提供4K资源,可以试试我家的私人影院了。
回复 支持 反对

使用道具 举报

Swordsman.Jr 发表于 2019-7-15 21:43 | 显示全部楼层
由衷感谢Hao4k平台提供4K资源,可以试试我家的私人影院了。
回复 支持 反对

使用道具 举报

pikaqiu 发表于 2019-7-15 21:13 | 显示全部楼层
大美北京,感谢分享
回复 支持 反对

使用道具 举报

hbsq1993 发表于 2019-7-15 19:50 | 显示全部楼层
回的人少,我来小顶一下。支持hao4k发展
回复 支持 反对

使用道具 举报

mchenrong 发表于 2019-7-15 10:42 | 显示全部楼层
这个4K资源很不错哦,我喜欢。赶紧试试我家4K电视
回复 支持 反对

使用道具 举报

GavinC 发表于 2019-7-15 09:22 | 显示全部楼层
美丽首都,感谢楼主分享
回复 支持 反对

使用道具 举报

liaojin145 发表于 2019-7-14 23:54 | 显示全部楼层
由衷感谢Hao4k平台提供4K资源,可以试试我家的私人影院了。
回复 支持 反对

使用道具 举报

zjy5209 发表于 2019-7-14 13:03 | 显示全部楼层
由衷感谢Hao4k平台提供4K资源,可以试试我家的私人影院了。
回复 支持 反对

使用道具 举报

a手抖 发表于 2019-7-13 09:29 | 显示全部楼层
由衷感谢Hao4k平台提供4K资源,可以试试我家的私人影院了。
回复 支持 反对

使用道具 举报

JIANGHY023 发表于 2019-7-12 21:37 | 显示全部楼层
支持Hao4k发展
回复 支持 反对

使用道具 举报

mai5100 发表于 2019-7-12 16:06 | 显示全部楼层
由衷感谢Hao4k平台提供4K资源,可以试试我家的私人影院了。
回复 支持 反对

使用道具 举报

Zzzz. 发表于 2019-7-11 15:44 | 显示全部楼层
由衷感谢Hao4k平台提供4K资源,可以试试我家的私人影院了。
回复 支持 反对

使用道具 举报

yulexiaoyi 发表于 2019-7-11 15:15 | 显示全部楼层
再次了解下BEIJING
回复 支持 反对

使用道具 举报

小汤姆 发表于 2019-7-11 05:05 | 显示全部楼层
由衷感谢Hao4k平台提供4K资源,可以试试我家的私人影院了。
回复 支持 反对

使用道具 举报

您需要登录后才可以回帖 登录 | 立即注册

本版积分规则

关注1

粉丝33

帖子29

发布主题
阅读排行 更多
广告位

扫描微信二维码

查看手机版网站

随时访问好4K

400-123-45678

在线客服(服务时间 9:00~18:00)

在线QQ客服
地址:广东省/深圳市
电邮:admin@hao4k.cn
电话:13800138000

Powered by Hao4K X3.3© 2016-2020 Hao4K影音|小黑屋|最新帖|网站地图