北京4K宣传片 The Best Of Beijing 下载自youtube 

2019-02-24 16:45 发布

4k视频 /[4k风景视频]
cap_THE BEST OF BEIJING 最好的北京_00_00_56_09.jpg cap_THE BEST OF BEIJING 最好的北京_00_01_09_11.jpg cap_THE BEST OF BEIJING 最好的北京_00_01_43_21.jpg cap_THE BEST OF BEIJING 最好的北京_00_01_02_10.jpg cap_THE BEST OF BEIJING 最好的北京_00_00_35_08.jpg cap_THE BEST OF BEIJING 最好的北京_00_02_22_14.jpg cap_THE BEST OF BEIJING 最好的北京_00_05_42_19.jpg cap_THE BEST OF BEIJING 最好的北京_00_03_17_13.jpg cap_THE BEST OF BEIJING 最好的北京_00_02_08_15.jpg cap_THE BEST OF BEIJING 最好的北京_00_05_26_18.jpg cap_THE BEST OF BEIJING 最好的北京_00_04_03_17.jpg
9 J7 A& K' u6 }; a% ^. I) b2 K
  k- c* Y0 Z  o: a
/ y; t; x9 i& yinfo0 P% E3 s" C' k% [3 _) z
General9 \$ o2 Y; d3 h8 \7 a, a: X7 F% k
Unique ID                      : 245851523139804696104953542011941335499 (0xB8F547F18126819C3B8A79D803CCB1CB)
; g* _! M; i8 ?0 NComplete name                  : C:\Users\\Desktop\THE BEST OF BEIJING 4K.mkv' W; Z9 U# N1 h8 W
Format                         : Matroska
8 D  p8 x. {0 {, t3 G# m$ }9 }* SFormat version                 : Version 4 / Version 2
0 B3 M- x" J+ T" `! L( P4 EFile size                      : 267 MiB
$ `% a- D/ x8 |Duration                       : 7 min 15 s) H8 G7 E6 E3 t2 }/ |+ g" V% _' T
Overall bit rate               : 5 150 kb/s
& b9 ~/ h( I/ ?8 b8 l3 i$ {$ ^Encoded date                   : UTC 2019-02-24 07:31:34# r) r& L; J( l. K" U. R4 [
Writing application            : mkvmerge v25.0.0 ('Prog Noir') 64-bit9 ?! ^' D& S- F, i4 l5 r8 G
Writing library                : libebml v1.3.6 + libmatroska v1.4.9 / Lavf58.12.100
! [" M4 f. h. t9 [) j: G6 Y/ M8 l4 N+ ]: m/ b  A' C; f
Video7 K6 T9 X2 P1 [9 m
ID                             : 11 M5 ]  G1 l0 K* C* ]; E' H
Format                         : HEVC
- E9 c$ {* P9 O3 IFormat/Info                    : High Efficiency Video Coding, |8 c" \' c5 f
Format profile                 : Main@L5@Main8 I8 _4 @3 J2 |: H: H9 p( Z
Codec ID                       : V_MPEGH/ISO/HEVC5 i+ _' ^* o) ]' i: o+ ?5 @
Duration                       : 7 min 15 s
# ]  d, m8 x) B9 ~Bit rate                       : 3 513 kb/s) r5 U. ?/ ]. p# w6 `- E! C' }
Width                          : 3 840 pixels
. y6 `6 ?  H  I, {Height                         : 1 620 pixels
  |& f5 b6 w" ~$ Z: {( t3 Z3 n+ S! sDisplay aspect ratio           : 2.40:1/ T, P$ u: _; o
Frame rate mode                : Variable
; C) R: w( e2 i1 _Frame rate                     : 25.000 FPS9 P9 c$ S7 q6 b; b) ]! q
Original frame rate            : 26.737 FPS. B; H; q0 J4 B. R* ?4 w
Color space                    : YUV7 U' d. g& d( W8 I. c
Chroma subsampling             : 4:2:0
3 [2 R4 o& d/ Y8 R$ pBit depth                      : 8 bits
, |4 D1 K& e( K0 tBits/(Pixel*Frame)             : 0.023
' a/ }7 O( d( q! `+ M) ?8 K, _( pStream size                    : 182 MiB (68%): S4 p$ T( b6 F' q
Writing library                : x265 1.9:[Windows][GCC 4.9.3][32 bit] 8bit8 Z% x6 A: a; A+ }" ^
Encoding settings              : wpp / ctu=64 / min-cu-size=8 / max-tu-size=32 / tu-intra-depth=1 / tu-inter-depth=1 / me=1 / subme=2 / merange=57 / no-rect / no-amp / max-merge=2 / temporal-mvp / no-early-skip / rdpenalty=0 / no-tskip / no-tskip-fast / strong-intra-smoothing / no-lossless / no-cu-lossless / no-constrained-intra / no-fast-intra / open-gop / no-temporal-layers / interlace=0 / keyint=250 / min-keyint=25 / scenecut=40 / rc-lookahead=20 / lookahead-slices=8 / bframes=4 / bframe-bias=0 / b-adapt=2 / ref=3 / limit-refs=3 / no-limit-modes / weightp / no-weightb / aq-mode=1 / qg-size=32 / aq-strength=1.00 / cbqpoffs=0 / crqpoffs=0 / rd=3 / psy-rd=2.00 / rdoq-level=0 / psy-rdoq=0.00 / signhide / deblock / sao / no-sao-non-deblock / b-pyramid / cutree / no-intra-refresh / rc=abr / bitrate=3947 / qcomp=0.60 / qpmin=0 / qpmax=51 / qpstep=4 / ipratio=1.40 / pbratio=1.30. o  e" L; d9 f4 N1 k" O( ?' ^. g
Language                       : English: u! j3 z# s* t3 _6 J. _
Default                        : Yes
; k9 u8 D4 U3 sForced                         : No
, a+ k* C- G7 z+ `: x, c% X- E5 @, t; F8 I
Audio #1
! h0 H( i% e$ P* BID                             : 2
3 D9 N5 Z4 \, SFormat                         : DTS3 w* v. ?# F7 W5 u" W) @4 M) Z
Format/Info                    : Digital Theater Systems+ l9 G. b$ C7 A7 S/ j" y: @
Codec ID                       : A_DTS
  E3 U! P  {+ s$ I' P7 z5 YDuration                       : 7 min 15 s
$ C3 W! _. a% R( }Bit rate mode                  : Constant
, {! I! z( Z2 ~% V2 VBit rate                       : 1 510 kb/s
, l# J1 f* g  K. b3 r" b: ]Channel(s)                     : 6 channels  C; x+ `$ U4 E3 T) @
Channel positions              : Front: L C R, Side: L R, LFE
& a* @# @9 `4 L1 d9 \Sampling rate                  : 48.0 kHz
$ D* ]. v; n% dFrame rate                     : 93.750 FPS (512 SPF): V+ P# o2 O' q6 J5 J, |
Bit depth                      : 24 bits
$ }# g$ p, }  \+ ]2 k; \9 QCompression mode               : Lossy
9 u: L* u) {& N! z  KDelay relative to video        : 7 ms
% Y" ?1 u5 v# @! t- LStream size                    : 78.3 MiB (29%)  e0 D. e; B/ Q; O  ?3 f7 S
Language                       : Chinese- B4 N/ `( c% V$ J0 O. Z. I* J
Default                        : No/ l4 f6 y5 D, M/ k! j2 T8 ?5 B
Forced                         : No
! T( ~7 x3 V0 D
+ ]3 K. }8 e! R5 R$ Q* nAudio #2
2 t% @/ F  ~& i2 rID                             : 3
! q; W! B7 j( a* y1 k$ A. uFormat                         : Opus
5 s0 j- h- n2 \Codec ID                       : A_OPUS
" S; \* H' C! u+ }/ y0 T+ yDuration                       : 7 min 15 s, A5 u6 n: C+ A5 S9 Y
Bit rate                       : 124 kb/s
. r( n6 k! K8 V3 wChannel(s)                     : 2 channels
* {7 c) {' i- b7 t, ^Channel positions              : Front: L R. T/ ?1 ^* _" }: {% F- b1 s
Sampling rate                  : 48.0 kHz! {" t. _3 Q$ q
Frame rate                     : 50.000 FPS (960 SPF)
3 d7 d' y$ ?: }- \; t1 kCompression mode               : Lossy( G( R" q! A+ C# I( A! ~' H7 r7 A+ Z
Delay relative to video        : 8 ms
3 d7 ?- b% D# S2 tStream size                    : 6.41 MiB (2%)
$ `; L5 a  u, P4 ~( U- ILanguage                       : Chinese
; C( z/ i2 z9 n) [Default                        : Yes
  J& }, d9 f$ e/ |0 \! WForced                         : No3 V( r* I. C2 n& a1 I$ G

, S$ K+ }2 \! z* L$ F/ X- S7 p北京4K宣传片 The Best Of Beijing 下载自youtube,youtube上已经火了。4k极限画质下的北京,感受没有雾霾的帝都。1 U, k: t5 |+ Y* O/ p
游客,如果您要查看本帖隐藏内容请回复

& }' z2 U0 @/ r6 Q7 R

评分

参与人数 1贡献值 +1 收起 理由
hao4k + 1 赞一个!

查看全部评分

B Color Smilies

全部评论485

北京4K宣传片 The Best Of Beijing 下载自youtube 


返回顶部 联系我们