专注4K家庭影音, 服务千万家庭影音发烧友!

[4k其他视频] 地球脉动第二季4K HDR DIY次时代国配加中文字幕85G版百度云下载

 
sbcaonima 发表于 2019-3-2 11:14:58 | 显示全部楼层
本帖最后由 sbcaonima 于 2019-3-21 19:19 编辑

Planet.Earth.II.S01E01.2160p.UHD.BluRay.HDR.DTS-HD.MA5.1.x265-ULTRAHDCLUB.mkv_20.jpg     Planet.Earth.II.S01E01.2160p.UHD.BluRay.HDR.DTS-HD.MA5.1.x265-ULTRAHDCLUB.mkv_20.jpg
第一集 info
General
Unique ID                      : 204922476750169205746245112145427177960 (0x9A2AA22825F8891A61275CCD9EDA21E8)
Complete name                  : G:\01\Planet.Earth.II.S01E01.2160p.UHD.BluRay.HDR.DTS-HD.MA5.1.x265-ULTRAHDCLUB.mkv
Format                         : Matroska
Format version                 : Version 4 / Version 2
File size                      : 12.2 GiB
Duration                       : 50 min 49 s
Overall bit rate               : 34.3 Mb/s
Movie name                     : Planet Earth II - Season 1, Episode 1: Islands (2016) [TV Mini-Series] - Release for ULTRAHDCLUB
Encoded date                   : UTC 2019-02-12 08:48:03
Writing application            : mkvmerge v25.0.0 ('Prog Noir') 64-bit
Writing library                : libebml v1.3.6 + libmatroska v1.4.9

Video
ID                             : 1
Format                         : HEVC
Format/Info                    : High Efficiency Video Coding
Format profile                 : Main 10@L5@High
Codec ID                       : V_MPEGH/ISO/HEVC
Duration                       : 50 min 49 s
Bit rate                       : 29.4 Mb/s
Width                          : 3 840 pixels
Height                         : 2 160 pixels
Display aspect ratio           : 16:9
Frame rate mode                : Constant
Frame rate                     : 25.000 FPS
Color space                    : YUV
Chroma subsampling             : 4:2:0 (Type 2)
Bit depth                      : 10 bits
Bits/(Pixel*Frame)             : 0.142
Stream size                    : 10.4 GiB (86%)
Title                          : Planet Earth II - Season 1, Episode 1: Islands (2016) [TV Mini-Series] - Release for ULTRAHDCLUB
Writing library                : x265 2.3+23-97435a0870be:[Windows][GCC 6.3.0][64 bit] 10bit
Encoding settings              : cpuid=1173503 / frame-threads=3 / numa-pools=12 / wpp / no-pmode / no-pme / no-psnr / no-ssim / log-level=2 / input-csp=1 / input-res=3840x2160 / interlace=0 / total-frames=0 / level-idc=0 / high-tier=1 / uhd-bd=0 / ref=1 / no-allow-non-conformance / repeat-headers / annexb / aud / hrd / info / hash=0 / no-temporal-layers / open-gop / min-keyint=25 / keyint=250 / bframes=3 / b-adapt=2 / b-pyramid / bframe-bias=0 / rc-lookahead=40 / lookahead-slices=0 / scenecut=40 / no-intra-refresh / ctu=32 / min-cu-size=8 / no-rect / no-amp / max-tu-size=32 / tu-inter-depth=1 / tu-intra-depth=1 / limit-tu=0 / rdoq-level=2 / dynamic-rd=0.00 / signhide / no-tskip / nr-intra=0 / nr-inter=0 / no-constrained-intra / strong-intra-smoothing / max-merge=2 / limit-refs=0 / no-limit-modes / me=2 / subme=7 / merange=57 / temporal-mvp / weightp / weightb / no-analyze-src-pics / no-deblock / no-sao / no-sao-non-deblock / rd=6 / no-early-skip / no-rskip / fast-intra / no-tskip-fast / no-cu-lossless / no-b-intra / rdpenalty=0 / psy-rd=3.00 / psy-rdoq=6.00 / no-rd-refine / analysis-mode=0 / no-lossless / cbqpoffs=0 / crqpoffs=0 / rc=crf / crf=21.0 / qcomp=0.80 / qpstep=1 / stats-write=0 / stats-read=0 / vbv-maxrate=100000 / vbv-bufsize=100000 / vbv-init=0.9 / crf-max=0.0 / crf-min=0.0 / ipratio=1.10 / pbratio=1.00 / aq-mode=3 / aq-strength=1.00 / no-cutree / zone-count=0 / no-strict-cbr / qg-size=32 / no-rc-grain / qpmax=51 / qpmin=0 / sar=0 / overscan=0 / videoformat=5 / range=0 / colorprim=9 / transfer=16 / colormatrix=9 / chromaloc=1 / chromaloc-top=2 / chromaloc-bottom=2 / display-window=0 / max-cll=0,0 / min-luma=0 / max-luma=1023 / log2-max-poc-lsb=8 / vui-timing-info / vui-hrd-info / slices=1 / opt-qp-pps / opt-ref-list-length-pps / no-multi-pass-opt-rps / scenecut-bias=0.05 / no-opt-cu-delta-qp / no-aq-motion / no-hdr / no-hdr-opt / refine-level=5
Language                       : English
Default                        : Yes
Forced                         : No
Color range                    : Limited
Color primaries                : BT.2020
Transfer characteristics       : PQ
Matrix coefficients            : BT.2020 non-constant

Audio #1
ID                             : 2
Format                         : DTS
Format/Info                    : Digital Theater Systems
Format profile                 : MA / Core
Codec ID                       : A_DTS
Duration                       : 50 min 49 s
Bit rate mode                  : Variable / Constant
Bit rate                       : 3 320 kb/s / 1 509 kb/s
Channel(s)                     : 6 channels
Channel positions              : Front: L C R, Side: L R, LFE
Sampling rate                  : 48.0 kHz
Frame rate                     : 93.750 FPS (512 SPF)
Bit depth                      : 24 bits
Compression mode               : Lossless / Lossy
Stream size                    : 1.18 GiB (10%)
Title                          : DTS-HD MA 5.1 @ 3320 kbps - Blu-ray GER
Language                       : English
Default                        : No
Forced                         : No

Audio #2
ID                             : 3
Format                         : DTS
Format/Info                    : Digital Theater Systems
Codec ID                       : A_DTS
Duration                       : 50 min 49 s
Bit rate mode                  : Constant
Bit rate                       : 1 536 kb/s
Channel(s)                     : 6 channels
Channel positions              : Front: L C R, Side: L R, LFE
Sampling rate                  : 48.0 kHz
Frame rate                     : 93.750 FPS (512 SPF)
Bit depth                      : 16 bits
Compression mode               : Lossy
Stream size                    : 574 MiB (5%)
Language                       : Chinese
Default                        : Yes
Forced                         : No

Text
ID                             : 4
Format                         : UTF-8
Codec ID                       : S_TEXT/UTF8
Codec ID/Info                  : UTF-8 Plain Text
Duration                       : 50 min 3 s
Bit rate                       : 44 b/s
Count of elements              : 354
Stream size                    : 16.4 KiB (0%)
Title                          : Blu-ray UK
Language                       : English
Default                        : No
Forced                         : No

已集成适配4k的国语字幕以及我亲自重制的国语音轨,上传至网盘,本片纵横比1.78:1,所以一般默认满屏播放,嫌字幕遮挡画面可以在设置手动里关闭字幕
链接:https://pan.baidu.com/s/1kxCSaMBIcpV8s_WmjSa5zQ
提取码:ej0m





回复

使用道具 举报

发烧友评论1664

倒序浏览
sbcaonima 发表于 2019-3-19 21:00:52 | 显示全部楼层
百战长缨 发表于 2019-3-19 03:13
我去了一趟国语视界。下载了一集地球脉动2。他们做的是央视9频道音轨。由于老赵退休,继任者水平参差不齐 ...

其实你自己也可以简单调整一下,在85G版本音轨基础上,mkvtoolnix封装,伸展比率25000/23976,延迟3000毫秒,基本匹配,只不过下集预告我之前用的是英文版的,因为和h265 85G版本不同步,如果你不看下集预告,完全可以按上面方法自己调整,预告也要台配的话只能等重做,我最近学习有些忙,我可能周末才能重做
回复 支持 2 反对 0

使用道具 举报

 楼主| 百战长缨 发表于 2019-3-19 03:13:28 | 显示全部楼层
本帖最后由 百战长缨 于 2019-3-19 11:21 编辑
sbcaonima 发表于 2019-3-18 23:49
匹配85G,98G版本比85G时长更长,只能重做,不过既然央视配音的已经出了,重做台配意义不大,之前想匹配98G ...

我去了一趟国语视界。下载了一集地球脉动2。他们做的是央视9频道音轨。由于老赵退休,继任者水平参差不齐。给大太平洋配音的嗓音可以唱美声,但是给地球脉动配音的嗓音不行还语调时高时低,吐字不清。央视怎么会选这么个人。比台版差很多。台版配音演员至少声音洪亮不会听不清楚。既然98G110G版本是最优秀的版本,还是希望老大能够把台版国语配音与其相匹配。感谢不尽。虽然有了央视国配,但是水平太低。效果太差。还是希望老大辛苦搞定谢谢。
回复 支持 反对

使用道具 举报

1217131970 发表于 2020-7-23 16:24:10 | 显示全部楼层
可以的,不错
回复 支持 反对

使用道具 举报

idmm 发表于 2020-7-21 13:38:18 | 显示全部楼层

最美好的纪录片 谢谢楼主
回复 支持 反对

使用道具 举报

gym123 发表于 2020-7-19 18:38:57 | 显示全部楼层
感谢分享,有好的资源可以给娃看了
回复 支持 反对

使用道具 举报

音乐心情每一天 发表于 2020-5-18 13:40:36 | 显示全部楼层
很好!值得下载!
回复 支持 反对

使用道具 举报

liweifan 发表于 2020-5-18 13:22:32 | 显示全部楼层
谢谢楼主分享,不知道还有更高清的吗
回复 支持 反对

使用道具 举报

shenjia123 发表于 2020-5-16 22:36:14 | 显示全部楼层
谢谢楼主分享              
回复 支持 反对

使用道具 举报

鱼想肉丝 发表于 2020-5-16 10:56:34 | 显示全部楼层
thanks for sharing!
回复 支持 反对

使用道具 举报

danielwu927 发表于 2020-5-16 00:12:36 Hao4K手机版 | 显示全部楼层
多谢分享
回复 支持 反对

使用道具 举报

baozi051 发表于 2020-5-15 23:52:41 | 显示全部楼层
多谢分享
回复 支持 反对

使用道具 举报

jy00528254 发表于 2020-5-15 10:25:14 | 显示全部楼层
谢谢分享!
回复 支持 反对

使用道具 举报

yakeji 发表于 2020-5-15 09:25:12 Hao4K手机版 | 显示全部楼层
正需要,感谢分享
回复 支持 反对

使用道具 举报

bjeric 发表于 2020-5-12 11:52:54 | 显示全部楼层
感谢感谢~~~~~
回复 支持 反对

使用道具 举报

您需要登录后才可以回帖 登录 | 立即注册

本版积分规则


1关注

41粉丝

31帖子

在线客服

在线客服

服务时间 9:00—18:00

返回顶部

关注微信公众号第一时间推送精彩

官方微信

手机访问

Hao4K影音

专注4k家庭影音,提供家庭影音社区,家庭影音器材库,影音问答平台,影音商城,服务千万家庭影音用户。

本站内容部分由用户自主分享和转载自互联网,转载目的在于传递更多信息,并不代表本网赞同其观点和对其真实性负责。

如有侵权、违反国家法律政策行为,请联系我们,我们会第一时间及时清除和处理!

举报反馈邮箱:admin@hao4k.cn

Copyright  2019-2020  Hao4K影音粤公网安备 44030302001429号    ( 粤ICP备18155646号-1 )|网站地图