专注4K家庭影音, 服务千万家庭影音发烧友!

[4k其他视频] 地球脉动2 4K 98G版 DIY次世代台配+简体字幕 百度云下载

 
sbcaonima 发表于 2019-3-24 20:01:33 | 显示全部楼层
地球.jpg    b6802766d0160924d7c272dcdd0735fae4cd348b.jpg    a991ff13632762d03e2f7778a9ec08fa503dc666.jpg    f864f318367adab4e179c88482d4b31c8501e4ce.jpg



第一集INFO

General
Unique ID                      : 13457689260382421720673334363038442572 (0xA1FDB4EE9FF6EFD6113BE492858644C)
Complete name                  : G:\地球脉动第二季 4k 炫机\01\Planet.Earth.II.S01E01.Islands.2160p.BluRay.REMUX.HEVC.DTS-HD.MA.5.1-FGT.mkv
Format                         : Matroska
Format version                 : Version 4 / Version 2
File size                      : 17.4 GiB
Duration                       : 53 min 4 s
Overall bit rate               : 46.9 Mb/s
Encoded date                   : UTC 2019-03-24 03:20:47
Writing application            : mkvmerge v25.0.0 ('Prog Noir') 64-bit
Writing library                : libebml v1.3.6 + libmatroska v1.4.9
Cover                          : Yes
Attachments                    : cover.jpg / cover_land.jpg / small_cover.jpg / small_cover_land.jpg

Video
ID                             : 1
Format                         : HEVC
Format/Info                    : High Efficiency Video Coding
Commercial name                : HDR10
Format profile                 : Main 10@L5.1@High
Codec ID                       : V_MPEGH/ISO/HEVC
Duration                       : 53 min 4 s
Bit rate                       : 43.0 Mb/s
Width                          : 3 840 pixels
Height                         : 2 160 pixels
Display aspect ratio           : 16:9
Frame rate mode                : Constant
Frame rate                     : 23.976 (24000/1001) FPS
Color space                    : YUV
Chroma subsampling             : 4:2:0 (Type 2)
Bit depth                      : 10 bits
Bits/(Pixel*Frame)             : 0.216
Stream size                    : 16.0 GiB (92%)
Default                        : Yes
Forced                         : No
Color range                    : Limited
Color primaries                : BT.2020
Transfer characteristics       : PQ
Matrix coefficients            : BT.2020 non-constant
Mastering display color primar : R: x=0.000000 y=0.000000, G: x=0.000000 y=0.000000, B: x=0.000000 y=0.000000, White point: x=0.000000 y=0.000000
Mastering display luminance    : min: 0.0000 cd/m2, max: 0 cd/m2

Audio #1
ID                             : 2
Format                         : DTS
Format/Info                    : Digital Theater Systems
Codec ID                       : A_DTS
Duration                       : 53 min 3 s
Bit rate mode                  : Constant
Bit rate                       : 1 510 kb/s
Channel(s)                     : 6 channels
Channel positions              : Front: L C R, Side: L R, LFE
Sampling rate                  : 48.0 kHz
Frame rate                     : 93.750 FPS (512 SPF)
Bit depth                      : 24 bits
Compression mode               : Lossy
Stream size                    : 573 MiB (3%)
Language                       : Chineses
Default                        : Yes
Forced                         : Yes

Audio #2
ID                             : 3
Format                         : DTS
Format/Info                    : Digital Theater Systems
Format profile                 : MA / Core
Codec ID                       : A_DTS
Duration                       : 53 min 4 s
Bit rate mode                  : Variable / Constant
Bit rate                       : 2 301 kb/s / 1 509 kb/s
Channel(s)                     : 6 channels
Channel positions              : Front: L C R, Side: L R, LFE
Sampling rate                  : 48.0 kHz
Frame rate                     : 93.750 FPS (512 SPF)
Bit depth                      : 16 bits
Compression mode               : Lossless / Lossy
Stream size                    : 873 MiB (5%)
Language                       : English
Default                        : No
Forced                         : No

Text
ID                             : 4
Format                         : PGS
Muxing mode                    : zlib
Codec ID                       : S_HDMV/PGS
Codec ID/Info                  : Picture based subtitle format used on BDs/HD-DVDs
Duration                       : 52 min 18 s
Bit rate                       : 25.1 kb/s
Count of elements              : 710
Stream size                    : 9.39 MiB (0%)
Default                        : Yes
Forced                         : No

Menu
00:00:00.000                   : en:Chapter 1
00:12:26.245                   : en:Chapter 2
00:18:49.253                   : en:Chapter 3
00:33:45.023                   : en:Chapter 4
00:43:04.582                   : en:Chapter 5

应坛友需求,将85G版本的台配重制以匹配98G原盘/remux,加上次世代台配及国语字幕后视频总大小超过101G,并上传百度云。这可能是你目前能找到的最完美版本《地球脉动2》,因重制耗费大量时间及精力,本人不会再重制央视版。
地球脉动第二季 98G DIY台配 国语字幕.txt
(161 Bytes, 售价: 5 K币)

评分

参与人数 4贡献值 +3 K币 +8 收起 理由
飞鱼007 + 1 很给力!
QQ_186A43 + 1 很给力!
woyalng + 1 谢谢楼主分享
hao4k + 8 赞一个!

查看全部评分

回复

使用道具 举报

发烧友评论2403

倒序浏览
wintop 发表于 2019-7-30 10:43:25 | 显示全部楼层
回的人少,我来小顶一下。支持hao4k发展
回复 支持 1 反对 0

使用道具 举报

orangeno1 发表于 2019-4-22 21:16:20 | 显示全部楼层
我喜欢完美两个字,谢谢楼主分享下载。收藏了。不知道有没有种子 版,百度云下载可能比较慢。
回复 支持 1 反对 0

使用道具 举报

tolto 发表于 2020-7-6 18:22:00 | 显示全部楼层
感谢分享
回复 支持 反对

使用道具 举报

titan52 发表于 2020-7-5 12:25:50 | 显示全部楼层
好资源,留个记录。避免迷路
回复 支持 反对

使用道具 举报

gaoqingman 发表于 2020-7-4 14:59:56 | 显示全部楼层
最喜欢纪录片了,强力支持
回复 支持 反对

使用道具 举报

chenqi128 发表于 2020-7-1 14:36:42 | 显示全部楼层
经典纪录片,谢谢分享!
回复 支持 反对

使用道具 举报

15770775616 发表于 2020-6-25 09:15:39 | 显示全部楼层
谢谢片源分享,太好了!
回复 支持 反对

使用道具 举报

dan2009 发表于 2020-6-24 21:23:45 | 显示全部楼层
看看最推荐的纪录片
回复 支持 反对

使用道具 举报

13907366290 发表于 2020-6-19 19:31:10 | 显示全部楼层
回的人少,我来小顶一下。支持hao4k发展

回复 支持 反对

使用道具 举报

allen911 发表于 2020-6-18 13:15:53 | 显示全部楼层
我喜欢完美两个字,谢谢楼主分享下载。收藏了。不知道有没有种子 版,百度云下载可能比较慢。
回复 支持 反对

使用道具 举报

alongchang 发表于 2020-6-17 10:31:13 | 显示全部楼层
感谢分享
回复 支持 反对

使用道具 举报

ThinkJade 发表于 2020-6-17 09:58:16 | 显示全部楼层
感谢楼主分享
回复 支持 反对

使用道具 举报

djw5566 发表于 2020-6-16 12:34:07 | 显示全部楼层
看看好不好好子了了了了
回复 支持 反对

使用道具 举报

您需要登录后才可以回帖 登录 | 立即注册

本版积分规则


1关注

41粉丝

31帖子

在线客服

在线客服

服务时间 9:00—18:00

返回顶部

关注微信公众号第一时间推送精彩

官方微信

手机访问

Hao4K影音

专注4k家庭影音,提供家庭影音社区,家庭影音器材库,影音问答平台,影音商城,服务千万家庭影音用户。

本站内容部分由用户自主分享和转载自互联网,转载目的在于传递更多信息,并不代表本网赞同其观点和对其真实性负责。

如有侵权、违反国家法律政策行为,请联系我们,我们会第一时间及时清除和处理!

举报反馈邮箱:admin@hao4k.cn

Copyright  2019-2020  Hao4K影音粤公网安备 44030302001429号    ( 粤ICP备18155646号-1 )|网站地图