专注4K家庭影音, 服务千万家庭影音发烧友!

在线
客服

QQ咨询服务时间: 9:00-21:00

选择下列客服马上在线沟通:

快速
发帖

暂无
7*24小时客服服务热线

关注
微信

顶部

[4k纪录视频] 全网最高画质 航拍中国 第一季 4K 5.1声道 典藏版 附DVD原盘

 
Braimbo 发表于 2019-4-3 15:38:13 | 显示全部楼层
本帖最后由 Braimbo 于 2020-5-25 13:13 编辑

正式海报.jpg
自制了这个典藏版本的宣传视频,感兴趣的朋友可以看一看,嘻嘻嘻嘻:https://www.bilibili.com/video/av45841983/

文件自制,拥有全网最高清的4K画质,吊打各种电视台几十个G的TS版,非HDR,拥有全网最佳的真5.1声道,和自己DIY的5.1声道。

为什么说吊打几十个G的TS版本,因为我这个版本是高清流媒体平台上拔下来的原始文件,是官方直出的视频源,再由流媒体平台转码的H265,属于Web-DL版。而几十G的TS版,属于在电视上录制的版本,因为是HDR,所以画面的色域和宽容度比SDR的好,但是因为是录制的画面,会丢失很多画面细节,所以精细程度,清晰度,TS版不如Web-DL版[/free]

另外附稀有资源:DVD原盘分集海报。可自行选择收藏。



  1. Video
  2. ID                             : 1
  3. Format                         : HEVC
  4. Format/Info                    : High Efficiency Video Coding
  5. Format profile                 : Main@L6@Main
  6. Codec ID                       : V_MPEGH/ISO/HEVC
  7. Duration                       : 50 min 0 s
  8. Bit rate                       : 13.7 Mb/s
  9. Width                          : 3 840 pixels
  10. Height                         : 2 160 pixels
  11. Display aspect ratio           : 16:9
  12. Frame rate mode                : Constant
  13. Frame rate                     : 25.000 FPS
  14. Color space                    : YUV
  15. Chroma subsampling             : 4:2:0
  16. Bit depth                      : 8 bits
  17. Bits/(Pixel*Frame)             : 0.066
  18. Stream size                    : 4.78 GiB (91%)
  19. Writing library                : iMedia
  20. Language                       : Chinese
  21. Default                        : Yes
  22. Forced                         : No
  23. Audio #1
  24. ID                             : 2
  25. Format                         : AC-3
  26. Format/Info                    : Audio Coding 3
  27. Commercial name                : Dolby Digital
  28. Codec ID                       : A_AC3
  29. Duration                       : 50 min 0 s
  30. Bit rate mode                  : Constant
  31. Bit rate                       : 640 kb/s
  32. Channel(s)                     : 6 channels
  33. Channel layout                 : L R C LFE Ls Rs
  34. Sampling rate                  : 48.0 kHz
  35. Frame rate                     : 31.250 FPS (1536 SPF)
  36. Bit depth                      : 16 bits
  37. Compression mode               : Lossy
  38. Stream size                    : 229 MiB (4%)
  39. Title                          : Braimbo DIY
  40. Language                       : Chinese
  41. Service kind                   : Complete Main
  42. Default                        : No
  43. Forced                         : No
  44. Audio #2
  45. ID                             : 3
  46. Format                         : AC-3
  47. Format/Info                    : Audio Coding 3
  48. Commercial name                : Dolby Digital
  49. Codec ID                       : A_AC3
  50. Duration                       : 50 min 0 s
  51. Bit rate mode                  : Constant
  52. Bit rate                       : 640 kb/s
  53. Channel(s)                     : 6 channels
  54. Channel layout                 : L R C LFE Ls Rs
  55. Sampling rate                  : 48.0 kHz
  56. Frame rate                     : 31.250 FPS (1536 SPF)
  57. Bit depth                      : 16 bits
  58. Compression mode               : Lossy
  59. Stream size                    : 229 MiB (4%)
  60. Language                       : Chinese
  61. Service kind                   : Complete Main
  62. Default                        : Yes
  63. Forced                         : No
复制代码

点开截图大图检查4K画质:
1.jpg 2.jpg 3.jpg 4.jpg 5.jpg 6.jpg
航拍中国.第一季.典藏版.Aearial.China.S01.Special.Collector's.Edition.torrent
(131.48 KB)

评分

参与人数 5贡献值 +2 H币 +7 K币 +60 收起 理由
3361 + 5 真佩服,满腹经纶!谢谢分享!
农夫山泉 + 2 航拍中国第二季,第三季期待!!!
dzhdzh + 1 谢谢分享!
ccnio + 1 赞一个!
花落无声 + 60

查看全部评分

回复

使用道具 举报

 

精彩评论179

倒序浏览
ye51143792 发表于 2020-1-7 16:38:09 | 显示全部楼层
如果变成浏览内容介绍等信息,再对种子进行购买,这样会更好点。现在连什么内容都看不到就要先购买,有点不好
回复 支持 7 反对 0

使用道具 举报

 
Braimbo 发表于 2019-8-19 16:37:34 | 显示全部楼层
yeyexing1128 发表于 2019-6-11 13:54
陕西和海南的4K是真的吗?我到处都没找到,另外你的4K文件还真小,一般都有10多G呢。

10多G的是电视录制版,电视台码率本身很低,而录制的时候用了高码率,导致文件虚大
回复 支持 1 反对 0

使用道具 举报

 
 楼主| 一凡 发表于 6 天前 来自手机 | 显示全部楼层
感谢分享
回复 支持 反对

使用道具 举报

 
3361 发表于 7 天前 | 显示全部楼层
谢谢作者的分享,这资源我找了好久,今天终于能够大饱眼福,满足我的欲望了。
我来打赏一波,支持作者,希望作者能够出第二和第三季。
回复 支持 反对

使用道具 举报

 
 
SolomonLi 发表于 7 天前 | 显示全部楼层
真是典藏版本
回复 支持 反对

使用道具 举报

 
 
cooldream 发表于 2020-6-25 19:19:28 | 显示全部楼层
感谢楼主分享,谢谢!
回复 支持 反对

使用道具 举报

 
芝麻糊胡糊糊 发表于 2020-6-25 11:02:43 | 显示全部楼层
终于找到4k啦
回复 支持 反对

使用道具 举报

 
 
Reviux 发表于 2020-6-21 10:26:25 | 显示全部楼层
感谢分享!!!!
回复 支持 反对

使用道具 举报

 
lly6782 发表于 2020-6-19 21:57:31 | 显示全部楼层
下了再下谢谢分享!
回复 支持 反对

使用道具 举报

 
 
czlaoding 发表于 2020-6-17 16:31:11 | 显示全部楼层
不错不错,感谢感谢
回复 支持 反对

使用道具 举报

 
Braimbo 发表于 2020-6-8 10:37:43 | 显示全部楼层
臨飛點 发表于 2020-5-25 21:41
喜欢楼主这个版本,确实是全网最好的,不知楼主有制作第二季的吗?也想收藏一个。@Braimbo

第二季之后目前只有CCTV4K版。
回复 支持 反对

使用道具 举报

 
 
静看天下物 发表于 2020-6-5 09:21:06 来自手机 | 显示全部楼层
这个资源可以。就是大了点
回复 支持 反对

使用道具 举报

 
r31325 发表于 2020-6-3 10:49:04 | 显示全部楼层
这个资源是真心好,可惜断了新的2/3季
回复 支持 反对

使用道具 举报

 
strongchai 发表于 2020-6-3 09:49:39 | 显示全部楼层
很不错的资源,谢谢分享!
回复 支持 反对

使用道具 举报

 
臨飛點 发表于 2020-6-1 12:32:49 | 显示全部楼层
Braimbo 发表于 2020-6-1 10:21
没有第二季了,第二季高质量的都没有上线,现在全网都上的是CCTV 4K版

就是,全网都是10多G那个版本,但我不喜欢有水印的
回复 支持 反对

使用道具 举报

 
您需要登录后才可以回帖 登录 | 立即注册

本版积分规则


0关注

1粉丝

1帖子

排行榜
社区广告

关注微信公众号第一时间推送精彩

官方微信

手机访问

Hao4K影音

专注4k家庭影音,提供家庭影音社区,家庭影音器材库,影音问答平台,影音商城,服务千万家庭影音用户。

本站内容部分由用户自主分享和转载自互联网,转载目的在于传递更多信息,并不代表本网赞同其观点和对其真实性负责。

如有侵权、违反国家法律政策行为,请联系我们,我们会第一时间及时清除和处理!

举报反馈邮箱:admin@hao4k.cn

Copyright  2019-2020  Hao4K影音粤公网安备 44030302001429号     ( 粤ICP备18155646号-1 )|网站地图