专注4K家庭影音, 服务千万家庭影音发烧友!
手机版
访问手机版

在线
客服

Hao4K影音在线客服服务时间: 9:00-24:00

选择下列客服马上在线沟通:

快速
发帖

关注
微信

关注微信二维码
顶部

余波4K The.Aftermath.2019.INTERNAL.HDR.2160p.WEB.H265电影

[复制链接]
鸡毛一地 发表于 2019年6月11日 16:42:05 | 显示全部楼层 |阅读模式 打印 上一主题 下一主题
电影频道
电影封面:
片  名: 余波4K
电影分类: 战争   剧情   爱情片   
国  家: 英国   
年  代: 2019
分 辨 率: 4K(3840x2160)    
电影格式: MKV|REMUX   
画质标准: HDR10 
音质编码: Dolby Digital Plus Audio    
电影声道: 其他 
电影语言: 英文原版     
资源大小: 19.28 GB
导  演: 詹姆斯·肯特
豆瓣评分:
中文字幕: -
剧情简介: 凯拉·奈特莉(Keira Knightley)与亚历山大·斯卡斯加德(Alexander Skarsgard)日前准备加盟一部名为《余波》(The Aftermath)的新片,该片由福克斯探照灯公司制作,是一部讲述二战战后故事的文艺片。
  《余波》根据Rhidian Brook同名小说改编,故事设定在1946年二战刚结束的德国汉堡。英军上校刘易斯奉命驻扎在这座城市,负责重建工作,他的妻子瑞切尔以及11岁的小儿子艾德蒙和他一起搬到了汉堡。
  不过让瑞切尔愤怒的是,他们和一家德国人住在同一幢大房子里。瑞切尔和刘易斯的长子在德军轰炸中丧生,为此她极其的痛恨德国人。这家德国人是一位父亲和他16岁的女儿,他们在战争中失去了妻子(母亲),对英国人也没有好脸色。不过刘易斯坚持这样安排,大家只好别别扭扭的住在同一个屋檐下。
  二战后的德国非常混乱,占领军与德国人的矛盾一直存在,还有些德国人企图重新集结为纳粹招魂。然而,瑞切尔关心的却是她自己家的问题,丈夫整日忙于工作,无暇顾及自己孩子,她唯一可以交流的人就是那个德国鳏夫(其实她并不知道,丈夫之所以如此忘我工作,也是为了忘却丧子之痛),慢慢的,这两个一开始互相敌视的人相爱了……
  《余波》将由詹姆斯·肯特(James Kent)导演,雷德利·斯考特(Ridley Scott)将通过他的Scott-Free制片公司制作本片。
 
本帖最后由 鸡毛一地 于 2019-6-11 16:49 编辑

余波4K The.Aftermath.2019.INTERNAL.HDR.2160p.WEB.H265资源信息

  1. Video
  2. ID : 1
  3. Format : HEVC
  4. Format/Info : High Efficiency Video Coding
  5. Commercial name : HDR10
  6. Format profile : Main 10@L5@High
  7. Codec ID : V_MPEGH/ISO/HEVC
  8. Duration : 1 h 48 min
  9. Bit rate : 24.0 Mb/s
  10. Width : 3 840 pixels
  11. Height : 2 076 pixels
  12. Original height : 2 160 pixels
  13. Display aspect ratio : 16:9
  14. Frame rate mode : Constant
  15. Frame rate : 23.976 (24000/1001) FPS
  16. Color space : YUV
  17. Chroma subsampling : 4:2:0 (Type 2)
  18. Bit depth : 10 bits
  19. Bits/(Pixel*Frame) : 0.126
  20. Stream size : 18.2 GiB (95%)
  21. Language : English
  22. Default : Yes
  23. Forced : No
  24. Color range : Limited
  25. Color primaries : BT.2020
  26. Transfer characteristics : PQ
  27. Matrix coefficients : BT.2020 non-constant
  28. Mastering display color primaries : Display P3
  29. Mastering display luminance : min: 0.0050 cd/m2, max: 1000 cd/m2

  30. Audio
  31. ID : 2
  32. Format : E-AC-3
  33. Format/Info : Enhanced AC-3
  34. Commercial name : Dolby Digital Plus
  35. Codec ID : A_EAC3
  36. Duration : 1 h 48 min
  37. Bit rate mode : Constant
  38. Bit rate : 640 kb/s
  39. Channel(s) : 6 channels
  40. Channel layout : L R C LFE Ls Rs
  41. Sampling rate : 48.0 kHz
  42. Frame rate : 31.250 FPS (1536 SPF)
  43. Compression mode : Lossy
  44. Stream size : 497 MiB (3%)
  45. Language : English
  46. Service kind : Complete Main
  47. Default : Yes
  48. Forced : No
复制代码


余波4K The.Aftermath.2019.INTERNAL.HDR.2160p.WEB.H265资源下载

余波4K The.Aftermath.2019.INTERNAL.HDR.2160p.WEB.H265【19.28GB】

余波4K The.Aftermath.2019.INTERNAL.HDR.2160p.WEB.H265-DEFLATE.torrent
(附件大小: 97.12 KB  )
回复

使用道具 举报

 

精彩评论33

正序浏览
杂皮儿宝贝 发表于 2019年6月11日 17:36:52 | 显示全部楼层
 
求中文字幕,哪位仁兄分享下,谢谢
回复 支持 反对

使用道具 举报

 
672960135 发表于 2019年6月11日 17:51:13 | 显示全部楼层
 
你们都用什么下载啊,我用迅雷都不动啊
回复 支持 反对

使用道具 举报

 
QQ_900DBF 发表于 2019年6月12日 00:13:25 | 显示全部楼层
 
感谢楼主分享4K电影!!!
回复 支持 反对

使用道具 举报

 
fengzhong-xing 发表于 2019年6月12日 00:25:30 | 显示全部楼层
 
多谢楼主的分享!
回复 支持 反对

使用道具 举报

 
PCHUN 发表于 2019年6月12日 01:06:20 | 显示全部楼层
 
Thanks for sharing
回复 支持 反对

使用道具 举报

 
leish 发表于 2019年6月12日 09:52:52 | 显示全部楼层
 
多谢楼主的分享!
回复 支持 反对

使用道具 举报

 
yuyouqianshui 发表于 2019年6月12日 20:48:26 | 显示全部楼层
 
感谢楼主分享~~
回复 支持 反对

使用道具 举报

 
lengpenglp 发表于 2019年6月13日 09:12:55 | 显示全部楼层
 
多谢楼主的分享!
回复 支持 反对

使用道具 举报

 
topsky 发表于 2019年6月13日 09:36:26 | 显示全部楼层
 
这两个版本有什么区别? 感谢分享
回复 支持 反对

使用道具 举报

 
龙都追求 发表于 2019年6月13日 11:57:06 | 显示全部楼层
 
坐等Remux 版本
回复 支持 反对

使用道具 举报

 
QQ_900DBF 发表于 2019年6月13日 17:00:15 | 显示全部楼层
 
支持hao4k,感谢楼主发布分享4k资源!!!
回复 支持 反对

使用道具 举报

 
liranliranhaha 发表于 2019年6月13日 20:28:58 来自手机 | 显示全部楼层
 
字幕去哪下载啊?
回复 支持 反对

使用道具 举报

 
您需要登录后才可以回帖 登录 | 立即注册

本版积分规则


0关注

44粉丝

64帖子

排行榜
作者专栏

关注微信公众号第一时间推送精彩

官方微信

手机访问

Hao4K影音

专注4k庭影音,提供家庭影音社区、家庭影音器材库、影音问答平台、影音商城服务家庭影音用户。

本站内容部分由用户自主分享和转载自互联网,转载目的在于传递更多信息,并不代表本网赞同其观点和对其真实性负责。

如有侵权、违反国家法律政策行为,请联系我们,我们会第一时间及时清除和处理!

举报反馈邮箱:admin@hao4k.cn

Copyright   ©2016-2019  Hao4K影音Powered by©Hao4K技术支持:Hao4K影音     ( 粤ICP备18155646号-1 )|网站地图