• 手机版
    手机扫一扫访问
    好4K手机版
  • 关注官方公众号
    微信扫一扫关注
    好4K公众号
电影频道
电影封面:
片  名: 俘虏国度4K
年  代: 2019
国  家: 美国   
电影分类: 科幻   惊悚   
分 辨 率: 4K(3840x2160)    
电影格式: MKV|REMUX   
画质标准: 其他 
音质编码: Dolby Digital Plus Audio    
电影声道: 其他
电影语言: 英文原版     
资源大小: 19.47 GB
导  演: 鲁伯特·瓦耶特
中文字幕: -
剧情简介: 影片讲述在地球已被外星人占领了10年之后的芝加哥市区,一股反抗势力异军突起,与服从派的政府势力产生了不可调和的矛盾,一场战斗由此而生。《俘虏国度》由焦点影业出品,将于3月29日在北美上映。
鸡毛一地 发表于 2019-6-11 16:55 | 显示全部楼层
天逆反击战:地球起义(港) / 异类占领(台)/俘虏国度4K Captive.State.2019.INTERNAL.2160p.WEB.H265电影信息

  1. Video
  2. ID : 1
  3. Format : HEVC
  4. Format/Info : High Efficiency Video Coding
  5. Format profile : Main 10@L5@High
  6. Codec ID : V_MPEGH/ISO/HEVC
  7. Duration : 1 h 49 min
  8. Bit rate : 24.1 Mb/s
  9. Width : 3 840 pixels
  10. Height : 1 604 pixels
  11. Original height : 2 160 pixels
  12. Display aspect ratio : 16:9
  13. Frame rate mode : Constant
  14. Frame rate : 23.976 (24000/1001) FPS
  15. Color space : YUV
  16. Chroma subsampling : 4:2:0 (Type 2)
  17. Bit depth : 10 bits
  18. Bits/(Pixel*Frame) : 0.163
  19. Stream size : 18.4 GiB (95%)
  20. Default : Yes
  21. Forced : No
  22. Color range : Limited
  23. Color primaries : BT.709
  24. Transfer characteristics : BT.709
  25. Matrix coefficients : BT.709

  26. Audio
  27. ID : 2
  28. Format : E-AC-3
  29. Format/Info : Enhanced AC-3
  30. Commercial name : Dolby Digital Plus
  31. Codec ID : A_EAC3
  32. Duration : 1 h 49 min
  33. Bit rate mode : Constant
  34. Bit rate : 640 kb/s
  35. Channel(s) : 6 channels
  36. Channel layout : L R C LFE Ls Rs
  37. Sampling rate : 48.0 kHz
  38. Frame rate : 31.250 FPS (1536 SPF)
  39. Compression mode : Lossy
  40. Delay relative to video : 125 ms
  41. Stream size : 502 MiB (3%)
  42. Language : English
  43. Service kind : Complete Main
  44. Default : Yes
  45. Forced : No
复制代码


天逆反击战:地球起义(港) / 异类占领(台)/俘虏国度4K Captive.State.2019.INTERNAL.2160p.WEB.H265电影下载

俘虏国度4K Captive.State.2019.INTERNAL.2160p.WEB.H265[19.47GB]
俘虏国度4K Captive.State.2019.INTERNAL.2160p.WEB.H265-DEFLATE.torrent
(附件大小: 98.08 KB  )
回复

使用道具 举报

精彩评论35

Womobog 发表于 2019-6-11 17:20 | 显示全部楼层
thanks666666
回复 支持 反对

使用道具 举报

宁波江南犬舍 发表于 2019-6-11 17:26 | 显示全部楼层
这个电影豆瓣口碑很差不知道具体怎么样,没有看过。 不过还是非常感谢资源分享。
回复 支持 反对

使用道具 举报

1404042751 发表于 2019-6-11 17:34 | 显示全部楼层
我有很多4k的种子,但是下不了
回复 支持 反对

使用道具 举报

从未改变 发表于 2019-6-11 18:24 来自 移动版  | 显示全部楼层
谢谢分享……
回复

使用道具 举报

kkwow9 发表于 2019-6-11 20:22 | 显示全部楼层

支持hao4k,支持楼主大人发布4k资源!
回复 支持 反对

使用道具 举报

cllr 发表于 2019-6-11 20:36 | 显示全部楼层
谢谢楼主分享
回复 支持 反对

使用道具 举报

wangili999 发表于 2019-6-11 20:55 | 显示全部楼层
支持hao4k,支持楼主大人发布4k资源!
回复 支持 反对

使用道具 举报

xpmg 发表于 2019-6-11 20:59 | 显示全部楼层
谢谢分享好碟!
回复 支持 反对

使用道具 举报

wgrd 发表于 2019-6-11 21:15 | 显示全部楼层
支持hao4k,支持楼主大人发布4k资源!
回复 支持 反对

使用道具 举报

zxmyjb 发表于 2019-6-11 22:39 | 显示全部楼层

支持hao4k,支持楼主大人发布4k资源!
回复 支持 反对

使用道具 举报

QQ_900DBF 发表于 2019-6-12 00:15 | 显示全部楼层
感谢楼主分享4K电影!!!
回复 支持 反对

使用道具 举报

fengzhong-xing 发表于 2019-6-12 00:24 | 显示全部楼层
多谢楼主的分享!
回复 支持 反对

使用道具 举报

bendan2 发表于 2019-6-12 01:05 | 显示全部楼层
感谢分享精彩电影。
回复 支持 反对

使用道具 举报

PCHUN 发表于 2019-6-12 01:06 | 显示全部楼层
Thanks for sharing
回复 支持 反对

使用道具 举报

chiquitita 发表于 2019-6-12 08:15 | 显示全部楼层
Thanks for your sharing.
回复 支持 反对

使用道具 举报

leish 发表于 2019-6-12 09:50 | 显示全部楼层
谢谢分享66666
回复 支持 反对

使用道具 举报

您需要登录后才可以回帖 登录 | 立即注册

本版积分规则

关注0

粉丝35

帖子45

发布主题
阅读排行 更多
广告位

扫描微信二维码

查看手机版网站

随时访问好4K

400-123-45678

在线客服(服务时间 9:00~18:00)

在线QQ客服
地址:广东省/深圳市
电邮:admin@hao4k.cn
电话:13800138000

Powered by Hao4K X3.3© 2016-2020 Hao4K影音|小黑屋|最新帖|网站地图|文章投稿