• 手机版
    手机扫一扫访问
    好4K手机版
  • 公众号
    微信扫一扫关注
    好4K公众号

电视剧名:第二十二条军规 第4K

  • 年  代:2019  
  • 国  家:美国
  • 类  别:战争 剧情 喜剧 
  • 字  幕:英文原版
  • 上映日期:2019-05-17
  • 文件格式:mkv    
  • 视频效果:4K(3840x2160)    
  • 资源大小:27.66GB
  • 片  长:45分钟
  • 导  演:乔治·克鲁尼 / 格兰特·赫斯洛夫 / 艾伦·库拉斯

剧情简介

Hulu 6集限定剧《第二十二条军规 Catch-22》定于美国时间5月17日全季上线,该剧由Paramount Television及Anonymous Content制片,根据Joseph Heller的同名小说改编,George Clooney﹑Grant Heslov及Ellen Kuras各执导两集。
  该限定剧由Luke Davies及David Michôd执笔,讲述主角Yossarian(Christopher Abbott饰)在二战时的意大利,因为Cathcart上校(Kyle Chandler饰,原本由George Clooney饰演)的个人问题,他迫使下属飞行大队不停进行危险的飞行任务。而Yossarian原本想装疯来逃避任务,但他被告知军队所谓第二十二条军规虽然指疯子可免飞行,但得自行申请,然而「自行申请」一事却反证明申请者本人是理性下不想死,因此根本不是疯子,故该军规形同虚设。
  Hugh Laurie饰演少校de Coverley,Pianosa空军基地的中队执行官。高尚、强健的他有着自己的一套,受他人敬畏的de Coverley把时间用在投马蹄铁、用留声机听爵士乐、自己弄马提尼,以及为军官在美方占领新城时找公寓。George Clooney原本饰演Cathcart上校一角,但为了专注在执导及制片工作,他改为饰演配角加州军事学院的训练指挥官Scheisskopf,是个缺少幽默感、有野心但无能、满腔怒火的虐待狂。在学院时他使其他人犹如活在地狱般,但他本质就是个爱发火的蠢货,因此正常是不会被派上海外前线的……不过他就是被派往当地中海战区的作战主管,因而再一次令主角Yossarian受难。
  其他演员有Giancarlo Giannini(饰演Marcello,下同)﹑Daniel David Stewart(Milo)﹑ Rafi Gavron(Aarfy)﹑ Austin Stowell(Nately)﹑ Graham Patrick Martin(Orr)﹑ Gerran Howell(Kid Sampson)﹑ Jon Rudnitsky(McWatt)﹑ Kevin J. O’Connor(Korn)﹑ Pico Alexander(Clevinger)﹑ Tessa Ferrer(Nurse Duckett)﹑ Lewis Pullman(Major Major)﹑ Josh Bolt(Dunbar)﹑ Jay Paulson(Chaplain)﹑ Julie Ann Emery(Marion)及Grant Heslov(Doc Daneeka)。
我是我爱豆 发表于 2019-6-28 15:41 | 显示全部楼层
1.png

2.png

3.png

第二十二条军规4K Catch-22.S01.2160p.WEBRip.x265.10bit.SDR.DDP5.1电视剧信息

  1. Video
  2. ID : 1
  3. Format : HEVC
  4. Format/Info : High Efficiency Video Coding
  5. Format profile : Main 10@L5.1@Main
  6. Codec ID : V_MPEGH/ISO/HEVC
  7. Duration : 47 min 18 s
  8. Bit rate : 14.1 Mb/s
  9. Width : 3 840 pixels
  10. Height : 2 160 pixels
  11. Display aspect ratio : 16:9
  12. Frame rate mode : Constant
  13. Frame rate : 23.976 (23976/1000) FPS
  14. Color space : YUV
  15. Chroma subsampling : 4:2:0
  16. Bit depth : 10 bits
  17. Bits/(Pixel*Frame) : 0.071
  18. Stream size : 4.65 GiB (95%)
  19. Language : English
  20. Default : Yes
  21. Forced : No
  22. Color range : Limited
  23. Color primaries : BT.709
  24. Transfer characteristics : BT.709
  25. Matrix coefficients : BT.709

  26. Audio
  27. ID : 2
  28. Format : E-AC-3
  29. Format/Info : Enhanced AC-3
  30. Commercial name : Dolby Digital Plus
  31. Codec ID : A_EAC3
  32. Duration : 47 min 18 s
  33. Bit rate mode : Constant
  34. Bit rate : 448 kb/s
  35. Channel(s) : 6 channels
  36. Channel layout : L R C LFE Ls Rs
  37. Sampling rate : 48.0 kHz
  38. Frame rate : 31.250 FPS (1536 SPF)
  39. Compression mode : Lossy
  40. Stream size : 152 MiB (3%)
  41. Language : English
  42. Service kind : Complete Main
  43. Default : Yes
  44. Forced : No
复制代码
第二十二条军规4K Catch-22.S01.2160p.WEBRip.x265.10bit.SDR.DDP5.1电视剧下载

第二十二条军规4K Catch-22.S01.2160p.WEBRip.x265.10bit.SDR.DDP5.1[27.66GB]
第二十二条军规4K Catch-22.S01.2160p.WEBRip.x265.10bit.SDR.DDP5.1-DEFLATE[rartv].torrent
(附件大小: 70.03 KB  )
回复

使用道具 举报

精彩评论3

忘了爱°Toro 发表于 2019-6-28 16:51 | 显示全部楼层
顶起出售广告位
回复 支持 反对

使用道具 举报

我只爱我 发表于 2019-7-6 09:44 来自 移动版  | 显示全部楼层
元芳你怎么看?
回复 支持 反对

使用道具 举报

懂事了 发表于 2019-7-13 04:02 来自 移动版  | 显示全部楼层
回个帖子,下班咯~
回复 支持 反对

使用道具 举报

您需要登录后才可以回帖 登录 | 立即注册

本版积分规则

关注0

粉丝0

帖子1

发布主题
阅读排行 更多
广告位

扫描微信二维码

查看手机版网站

随时访问好4K

400-123-45678

在线客服(服务时间 9:00~18:00)

在线QQ客服
地址:广东省/深圳市
电邮:admin@hao4k.cn
电话:13800138000

Powered by Hao4K X3.3© 2016-2020 Hao4K影音|小黑屋|最新帖|网站地图