• 手机版
    手机扫一扫访问
    好4K手机版
  • 公众号
    微信扫一扫关注
    好4K公众号
2867215 发表于 2016年5月21日 01:25:41 | 显示全部楼层
电影频道
电影封面:
片  名: 荒野猎人 The Revenant
电影分类: 冒险   惊悚   西部   
国  家: 美国   
年  代: 2015    
分 辨 率: 4K(3840x2160)    
电影格式: mp4    
画质标准:  
音质编码:  
电影声道:  
电影语言:  
资源大小: 31.01 GB
导  演: 亚利桑德罗·冈萨雷斯·伊纳里多 Alejandro González Iñárritu
中文字幕: -
剧情简介:   休·格拉斯(莱昂纳多·迪卡普里奥 Leonardo DiCaprio 饰)是一名皮草猎人,在一次打猎途中被一头熊殴打成重伤后被同行的乘船船长安德鲁·亨利(多姆纳尔·格里森 Domhnall Gleeson 饰)救下,船长雇佣了两个人约翰·菲茨杰拉德(汤姆·哈迪 Tom Hardy 饰)和吉姆·布里杰(威尔·保尔特 Will Poulter 饰)来照顾他。约翰·菲茨杰拉德根本无心照顾格拉斯,一心只想着将格拉斯的财产占为己有,于是残忍的杀害了格拉斯的儿子,并说服吉姆·布里杰将格拉斯抛弃在荒野等死。两人原以为格拉斯就会这样离世,但格拉斯凭借坚强的毅力在野性的蛮荒之地穿行了好几个月,终于回到了安全地带并开始了复仇计划。
  影片根据迈克尔·庞克同名长篇小说改编。
◎获奖情况

  第88届奥斯卡金像奖  (2016)
  最佳影片(提名) 史蒂夫·戈林 / 玛丽·帕伦特 / 基思·雷德曼 / 亚利桑德罗·冈萨雷斯·伊纳里多 / 阿诺恩·米尔坎
  最佳导演 亚利桑德罗·冈萨雷斯·伊纳里多
  最佳男主角 莱昂纳多·迪卡普里奥
  最佳男配角(提名) 汤姆·哈迪
  最佳摄影 艾曼努尔·卢贝兹基
  最佳剪辑(提名) 斯蒂芬·米廖内
  最佳视觉效果(提名) 麦特·沙姆韦 / 理查德·麦克布莱德 / 杰森·史密斯 / 卡梅伦·沃尔鲍尔
  最佳音效剪辑(提名) 马丁·埃尔南德斯 / 朗·班德
  最佳混音(提名) 兰迪·汤姆 / 克里斯·杜斯特迪克 / 乔恩·泰勒 / 弗兰克·A·蒙塔诺
  最佳美术指导(提名) 哈米什·珀迪 / 杰克·菲斯克
  最佳服装设计(提名) 杰奎琳·韦斯特
  最佳化妆与发型设计(提名) 西安·格里格 / 邓肯·贾曼 / 罗伯特·A·潘蒂尼

  第73届金球奖  (2016)
  电影类 最佳剧情片
  电影类 剧情片最佳男主角 莱昂纳多·迪卡普里奥
  电影类 最佳导演 亚利桑德罗·冈萨雷斯·伊纳里多
  电影类 最佳原创配乐(提名)

  第69届英国电影学院奖  (2016)
  电影奖 最佳影片
  电影奖 最佳导演 亚利桑德罗·冈萨雷斯·伊纳里多
  电影奖 最佳男主角 莱昂纳多·迪卡普里奥
  电影奖 最佳摄影
  电影奖 最佳剪辑(提名)
  电影奖 最佳原创音乐(提名)
  电影奖 最佳化妆/发型(提名)
  电影奖 最佳音效

  第43届动画安妮奖  (2016)
  最佳真人电影动画人物

  第68届美国导演工会奖  (2016)
  最佳电影导演 亚利桑德罗·冈萨雷斯·伊纳里多

  第22届美国演员工会奖  (2016)
  电影奖 最佳男主角 莱昂纳多·迪卡普里奥

  第27届美国制片人工会奖  (2016)
  最佳电影制片人奖(提名)

  第30届美国摄影协会奖  (2016)
  电影长片最佳摄影 艾曼努尔·卢贝兹基

  第66届美国剪辑工会奖  (2016)
  剧情片最佳剪辑(提名)

  第14届美国视觉效果协会奖  (2016)
  最佳电影辅助视觉效果
  最佳真人电影CG动画角色
  最佳电影视觉效果合成

  第21届美国评论家选择电影奖  (2016)
  最佳影片(提名)
  最佳导演(提名) 亚利桑德罗·冈萨雷斯·伊纳里多
  最佳男主角 莱昂纳多·迪卡普里奥
  最佳男配角(提名) 汤姆·哈迪
  最佳摄影 艾曼努尔·卢贝兹基
  最佳剪辑(提名)
  最佳配乐(提名)
  最佳化妆(提名)
  最佳视觉效果(提名)

  第20届金卫星奖  (2016)
  电影部门 最佳男主角 莱昂纳多·迪卡普里奥

  第14届华盛顿影评人协会奖  (2015)
  最佳男主角 莱昂纳多·迪卡普里奥
  最佳摄影

  第36届波士顿影评人协会奖  (2015)
  最佳男主角 莱昂纳多·迪卡普里奥

  第28届芝加哥影评人协会奖  (2015)
  最佳男主角 莱昂纳多·迪卡普里奥

  第6届豆瓣电影鑫像奖  (2016)
  鑫豆单元 最佳影片(外语)(提名)
  鑫豆单元 最佳导演(外语)(提名) 亚利桑德罗·冈萨雷斯·伊纳里多
  鑫豆单元 最佳男演员(外语) 莱昂纳多·迪卡普里奥

General
Format : Matroska
Format version : Version 4 / Version 2
File size : 31.0 GiB
Duration : 2h 36mn
Overall bit rate : 28.4 Mbps
Encoded date : UTC 2016-05-14 00:25:24
Writing application : mkvmerge v9.1.0 ('Little Earthquakes') 64bit
Writing library : libebml v1.3.3 + libmatroska v1.4.4

Video
ID : 1
Format : HEVC
Format/Info : High Efficiency Video Coding
Format profile : Main@L5@Main
Codec ID : V_MPEGH/ISO/HEVC
Duration : 2h 32mn
Bit rate : 24.3 Mbps
Width : 3 840 pixels
Height : 1 608 pixels
Display aspect ratio : 2.40:1
Frame rate mode : Constant
Frame rate : 23.976 (23976/1000) fps
Original frame rate : 23.976 (24000/1001) fps
Color space : YUV
Chroma subsampling : 4:2:0
Bit depth : 8 bits
Bits/(Pixel*Frame) : 0.164
Stream size : 26.0 GiB (84%)

Audio
ID : 2
Format : DTS
Format/Info : Digital Theater Systems
Format profile : MA / Core
Mode : 16
Format settings, Endianness : Big
Codec ID : A_DTS
Duration : 2h 36mn
Bit rate mode : Variable / Constant
Bit rate : 4 603 Kbps / 1 509 Kbps
Channel(s) : 8 channels / 6 channels
Channel positions : Front: L C R, Side: L R, Back: L R, LFE / Front: L C R, Side: L R, LFE
Sampling rate : 48.0 KHz
Frame rate : 93.750 fps (512 spf)
Bit depth : 24 bits
Compression mode : Lossless / Lossy
Delay relative to video : -83ms
Stream size : 5.03 GiB (16%)
Title : DTS-HD

4.jpg

荒野猎人4K源版 The Revenant 2015 4K[2160p/31.01GB/BT]种子下载
游客,如果您要查看本帖隐藏内容请回复


荒野猎人4k The.Revenant.2015.2160p.BluRay.REMUX.HEVC.DTS-HD.MA.7.1-FGT 4K版下载[第一百一十二部破解4K UHD蓝光原盘电影]
https://www.hao4k.cn/thread-17761-1-1.html




更多图片 小图 大图
组图打开中,请稍候......
回复

使用道具 举报

精彩评论1141

wzc485 发表于 2018年2月25日 19:48:35 | 显示全部楼层
http://1892117.170.ctc.data.tv002.com:443/down/34207e518efa22d6f9eb4ef7b880beab-1505566249/4K%E9%AB%98%E6%B8%85MV%20%E9%BE%9A%E7%8E%A5.%E8%B0%81%E7%9A%84%E7%9C%BC%E6%B3%AA%E5%9C%A8%E9%A3%9E.mp4?cts=dx-f-D60A180A243A212F4b293&ctp=60A180A243A212&ctt=1519555503&limit=1&spd=150000&ctk=e2e3bfe05d02e83ce66b5adf8057e641&chk=34207e518efa22d6f9eb4ef7b880beab-1505566249&mtd=1http://1892117.170.ctc.data.tv002.com:443/down/34207e518efa22d6f9eb4ef7b880beab-1505566249/4K%E9%AB%98%E6%B8%85MV%20%E9%BE%9A%E7%8E%A5.%E8%B0%81%E7%9A%84%E7%9C%BC%E6%B3%AA%E5%9C%A8%E9%A3%9E.mp4?cts=dx-f-D60A180A243A212F4b293&ctp=60A180A243A212&ctt=1519555503&limit=1&spd=150000&ctk=e2e3bfe05d02e83ce66b5adf8057e641&chk=34207e518efa22d6f9eb4ef7b880beab-1505566249&mtd=1
回复 支持 反对

使用道具 举报

zellgxc 发表于 2017年2月16日 23:05:09 | 显示全部楼层
magnet:?xt=urn:btih:F5060B52CFE8CCD5260364F7ECFE784EE48B29B6&dn=%E5%B0%91%E5%B9%B4%E6%B4%BE%E7%9A%84%E5%A5%87%E5%B9%BB%E6%BC%82%E6%B5%81%5B4k%E8%B6%85%E9%AB%98%E6%B8%853D%E7%89%88%E8%93%9D%E5%85%89%E5%8E%9F%E7%9B%98DiY%E7%AE%80%E7%B9%81%E7%89%B9%E6%95%88%E4%B8%AD%E8%8B%B1%E5%AD%97%E5%B9%95%2B%E5%9B%BD%E9%85%8D%5DLife.of.Pi.2012.3D.Blu-ray.1080p.AVC.DTS-HD.MA.7.1-4K
回复 支持 反对

使用道具 举报

MichaelHoO 发表于 2016年12月17日 23:56:29 | 显示全部楼层
thunder://QUFodHRwOi8va3VhaS54dW5sZWkuY29tL2QvRU5WRUdDTE9CSEtYWlo=thunder://QUFodHRwOi8va3VhaS54dW5sZWkuY29tL2QvRU5WRUdDTE9CSEtYWlo=thunder://QUFodHRwOi8va3VhaS54dW5sZWkuY29tL2QvRU5WRUdDTE9CSEtYWlo=
回复 支持 反对

使用道具 举报

 楼主| 2867215 发表于 2016年5月21日 01:27:08 | 显示全部楼层
回的人少,我来小顶一下。支持hao4k发展
回复 支持 反对

使用道具 举报

tonyno1 发表于 2016年5月21日 13:39:33 | 显示全部楼层
谢谢LZ分享!!!
回复 支持 反对

使用道具 举报

千杯不醉 发表于 2016年5月21日 22:35:28 | 显示全部楼层
能看到最新4K奥斯卡大片,真是不容易啊
回复 支持 反对

使用道具 举报

389490225 发表于 2016年5月22日 05:57:57 | 显示全部楼层
很期待该片
回复 支持 反对

使用道具 举报

wangpeng006 发表于 2016年5月22日 16:55:52 | 显示全部楼层
我只是路过打酱油的,赞hao4k
回复 支持 反对

使用道具 举报

wangsiman 发表于 2016年5月23日 10:02:03 | 显示全部楼层
迅雷下载关机后进度归零是怎么回事?
回复 支持 反对

使用道具 举报

lry晴天 发表于 2016年5月23日 23:01:08 | 显示全部楼层
啥也不说了,感谢楼主在hao4k分享4k视频内容哇!
回复 支持 反对

使用道具 举报

4k中国 发表于 2016年5月24日 10:24:04 | 显示全部楼层
啥也不说了,感谢楼主在hao4k分享4k视频内容哇!
回复 支持 反对

使用道具 举报

柯乐 发表于 2016年5月24日 11:52:34 | 显示全部楼层
4k级别没看过 看看
回复 支持 反对

使用道具 举报

晃一晃 发表于 2016年5月24日 13:12:28 | 显示全部楼层
支持hao4k,支持楼主大人发布4k资源!
回复 支持 反对

使用道具 举报

王小二 发表于 2016年5月24日 13:51:40 | 显示全部楼层
支持hao4k,支持楼主大人发布4k资源!
回复 支持 反对

使用道具 举报

东瓜 发表于 2016年5月24日 16:29:17 | 显示全部楼层
支持HAO4K 谢谢楼主分享
回复 支持 反对

使用道具 举报

clovinho 发表于 2016年5月25日 03:16:03 | 显示全部楼层
确实是难得4k好帖啊,顶先
回复 支持 反对

使用道具 举报

超级小龙虾 发表于 2016年5月25日 09:17:05 | 显示全部楼层
找了好久了!
回复 支持 反对

使用道具 举报

qaz227 发表于 2016年5月25日 10:43:49 来自 移动版  | 显示全部楼层
好片 谢谢分享
回复 支持 反对

使用道具 举报

zwp502510 发表于 2016年5月25日 22:34:16 | 显示全部楼层
啥也不说了,感谢楼主在hao4k分享4k视频内容哇!
回复 支持 反对

使用道具 举报

Ming 发表于 2016年5月27日 00:09:16 | 显示全部楼层
非常好,谢谢楼主
回复 支持 反对

使用道具 举报

您需要登录后才可以回帖 登录 | 立即注册

本版积分规则

关注11

粉丝43

帖子343

发布主题
阅读排行 更多
广告位

扫描微信二维码

查看手机版网站

随时访问好4K

400-123-45678

在线客服(服务时间 9:00~18:00)

在线QQ客服
地址:广东省/深圳市
电邮:admin@hao4k.cn
电话:13800138000

Powered by Hao4K X3.3© 2016-2020 Hao4K影音|小黑屋|最新帖|网站地图