• 手机版
    手机扫一扫访问
    好4K手机版
  • 公众号
    微信扫一扫关注
    好4K公众号
hacken 发表于 2019年8月18日 11:09:35 | 显示全部楼层
本帖最后由 hacken 于 2019-8-18 11:11 编辑
( ^8 }% X. d! }4 i/ o
5 \: K( i8 L4 o0 S- P新手第一次发帖。最近发现复联4又出来一个88g版本,英文标题直译好像是内部版本、动态hdr-x?下载下来发现码率比60g原盘高不少,madvr渲染颜色也比之前的更鲜艳,很好奇这种版本怎么来的,有没有收藏价值。请各位大佬解惑,附图。
  @' w. [* e4 u- i% X& R. F 批注 2019-08-18 104726.png
* d8 Y: w& c* d- c$ o0 F 60g.png 88g.png
7 `$ c$ v% k- h; [3 D9 K: E 60g_.png 88g..png
回复

使用道具 举报

精彩评论97

饼饼 发表于 2019年8月19日 17:48:16 | 显示全部楼层
88G版本是高动态HDR,亮度高达6000尼特的版本,目前应该是最好的版本,MKV格式,建议外挂个字幕。 收藏当然不错,可以看看钢铁战衣的蜘蛛侠脸上的灰。
* q' Z' p; z# s* U( O9 J2 b, y& i6 {. ]3 I6 T
95G版本是4000尼特,网友们纷纷表示过曝了,没有价值9 S' v7 I6 P% ~

: S  v1 o5 v( ]6 P  {1 R" P59-60G的原盘版本制作非常差倒是事实。
回复 支持 3 反对 0

使用道具 举报

ljason 发表于 2019年9月7日 21:32:52 | 显示全部楼层
* 先进的色域映射:*
% d$ ^! ?0 c+ V7 \8 b8 u
1 m% ^: ~1 U2 i' X, N0 K我们的转换是将原始 DCI 源颜色映射到 BT.2020 色彩范围。这样,您可以确保在 HDR 电视中观看原始颜色。6 A0 k. J* w2 u! W, D9 q3 H
. E0 m& U! {4 V  d2 S7 `5 k* h. Z* n: p
* 先进的 Q HDR 分级:*  ^# ], A8 a6 h) o7 X* p. B! Q  p

% A( h& _" q* H$ M5 [全范围数字中间分级,具有更高的精度。
9 @, u9 D, j" U: j% b# p* {. M5 _6 V' O3 ~, z
”我们的 HDR 分级从 SDR 原始信号源完成,以获得所有曝光和最佳可能的高动态范围视频。
0 |% W6 [/ j3 N, }
) e7 [0 a5 T5 e* l1 @+ ]0 T0 O您可以与杜比视界进行比较。主要区别在于曝光,在工作室等级中,高光甚至没有正确地放置在 HDR 范围内,因此反射 / 镜面反射光和真实感并未完全达到效果。我们将所有 HDR 曝光作用于视频,使结果更加真实。“
. i( |- E" m9 k5 [8 i; T0 Z8 U8 W% G  C( `& I5 _$ b% Y8 ?
以上为TEKNO3D官网解释
回复 支持 1 反对 0

使用道具 举报

shen_chu_feng 发表于 2019年8月28日 14:37:08 | 显示全部楼层
下完后大概看了看,差异比较明显。
* F; F# [* E' k# J" i% k两者(MKV)纯视频文件相同数据项目上的区别:
$ v0 l7 R; [+ a- C- e
8 B% j9 K4 U! h8 P2 A) R$ j' G' j' {6 MVideo# D/ D+ p& I! w2 s) E) z+ d; v
ID                             : 1
; l( r% L0 E/ R. o  G6 ZFormat                         : HEVC( Q( O7 |0 T' G! D* F2 E
Format/Info                    : High Efficiency Video Coding/ X; U! o0 }1 n$ [% r' I
Format profile                 : Main 10@L5.1@High
3 v- B% P! u) W( O) \# C; H  L6 HHDR format                     : SMPTE ST 2086, HDR10 compatible
2 w1 w0 Z" f, k& j' a3 m' QCodec ID                       : V_MPEGH/ISO/HEVC
5 C' ~, x8 q1 N# M; kDuration                       : 3 h 1 min
0 Y3 J1 o" \1 F+ |7 w8 ~Bit rate                       : 36.0 Mb/s
- c. f" k0 `! g! X& RWidth                          : 3 840 pixels
8 b2 f0 t" I/ \; A; QHeight                         : 2 160 pixels
2 p9 Y7 P& `5 W9 M$ FDisplay aspect ratio           : 16:9
9 b3 L& s  p1 k! X% q0 WFrame rate mode                : Constant. D0 j9 U: R: ]. y9 N% {# Y( u- j
Frame rate                     : 23.976 (24000/1001) FPS
) Q) c' H# R- J6 eColor space                    : YUV
& E( ?3 U! z2 UChroma subsampling             : 4:2:0 (Type 2)1 X# i. ]$ I9 N1 P8 r4 L
Bit depth                      : 10 bits
# q- |( E9 K; P0 N% L4 a% NBits/(Pixel*Frame)             : 0.181
8 K( l, g* C9 ]' K4 }. M5 mStream size                    : 45.6 GiB (88%)9 a4 e8 C  I1 Y) a5 K3 Q+ ]4 w
Writing library                : ATEME Titan File 3.9.0 (4.9.0.0)        $ ^5 l( C; r. d" u" U) r
Language                       : English
1 n) b; P6 [; ?$ n$ xDefault                        : Yes" c+ L5 w( N4 L! V6 c, X  L. N$ f
Forced                         : No
+ j+ V1 h, A8 a- w" W- \. WColor range                    : Limited! N8 C+ B; h+ A) ~( O& \5 M( Z$ {0 ?
Color primaries                : BT.20206 l$ e2 x2 w; c. z2 B
Transfer characteristics       : PQ
& U8 }" Y8 `) a4 t7 S' {' cMatrix coefficients            : BT.2020 non-constant$ ^& Y4 z! w% `4 q4 ~
Mastering display color primar : Display P39 m5 u' E* F) f9 H
Mastering display luminance    : min: 0.0050 cd/m2, max: 4000 cd/m2# @% W$ Y0 k) X, R' P  Y' Y6 K
SEI_rbsp_stop_one_bit          : Missing
8 x; ]# ~/ J+ v; `7 N/ y5 s& I

) S8 K- {& Z" k0 D! K' r# _Video
+ D& L. ^' r( W) CID                             : 1* |# P8 W0 L8 M! I  L+ ?; M% o  i- H+ Z
Format                         : HEVC
( ?* K1 a& y3 }' ?4 m  X! rFormat/Info                    : High Efficiency Video Coding% U6 U- Q1 \( P6 B- o" a& ~$ f& c
Format profile                 : Main 10@L5.1@High$ _0 K2 P! q! y9 n4 j% q; g
HDR format                     : SMPTE ST 2086, HDR10 compatible6 ~/ X/ L2 p7 w; d6 @3 R; ~
Codec ID                       : V_MPEGH/ISO/HEVC
# y5 n7 g4 W1 \5 zDuration                       : 3 h 1 min
9 S# Q" Z7 B6 LBit rate                       : 64.0 Mb/s1 ?+ _+ W/ p$ V: M6 w
Width                          : 3 840 pixels, M+ l" P' g' Y4 U3 v$ i8 G* z
Height                         : 2 160 pixels8 u, O1 V* x' D5 q1 k1 i5 z, U
Display aspect ratio           : 16:9/ B% L$ l2 Q' v8 O
Frame rate mode                : Constant& w4 n9 U: T% A9 |
Frame rate                     : 23.976 (24000/1001) FPS
% p: Z4 a  K: _2 R* J- F  cStandard                       : PAL
; c2 i9 n0 A% R3 e& a3 ]Color space                    : YUV/ A4 p8 N( w& O
Chroma subsampling             : 4:2:0 (Type 2)( d) C, b8 H* R" }3 }
Bit depth                      : 10 bits# q- T2 j" z; U9 Y4 o
Bits/(Pixel*Frame)             : 0.322# n5 t, ~, \: f
Stream size                    : 81.0 GiB (92%)5 N# f' X* z( D
Title                          : Avengers.Endgame.2019.INTERNAL.UHD.DYNAMIC.HDR-X..TrueHD.Atmos.7.1-TEKNO3D
$ d! b# Y; u; p7 g4 SLanguage                       : English; Y( r- {( D* z; D
Default                        : Yes
4 D2 J2 h( {4 k) M6 ~Forced                         : No
+ F' ?6 B" K' c2 C9 N- f  RColor range                    : Limited
3 I0 W; @% b8 @5 I# hColor primaries                : BT.2020% n1 x; w1 H3 R% i2 G7 ]
Transfer characteristics       : PQ" W' v& P5 Y! t2 l8 J
Matrix coefficients            : BT.2020 non-constant$ }5 K  ~% _0 W* F" A) D
Mastering display color primar : Display P3
' A  p& g5 l: [1 d! l1 }3 dMastering display luminance    : min: 0.0050 cd/m2, max: 6000 cd/m2
9 |( j9 K% e$ ?5 a8 |2 I/ K- _Maximum Content Light Level    : 6000 cd/m2
- W* r% {! g# {) _% T+ G7 z$ x( XMaximum Frame-Average Light Le : 640 cd/m2 1.png
( E/ @( Z, i7 {* ~2 M 2.png % R- Q! ^" d* @8 {' f5 \
3.png
9 K8 e$ O7 a4 F" E9 a# [4 w7 A
" }# S( l1 X3 n2 A: c9 o7 r" J9 ?) c8 u- H, l3 y2 K
8 k3 I# t5 }0 w  q& \: V7 v
贴下两者同一屏幕播放视觉上的区别(PotPlayer支持同一屏幕多视频同时播放)! O& K  R, j6 V5 Y9 T/ j3 r
  g  x9 V4 g6 F' v( Q4 v
回复 支持 1 反对 0

使用道具 举报

michaellv 发表于 2019年8月23日 17:45:49 | 显示全部楼层
这东东其实就是网友用山寨软件DIY出来的,以前UHD破解前俄罗斯压制组也有过类似的乱搞!3 I: R, I0 t% L8 T$ C' k, |- Q8 }! ^
视频这东东不像是照片,PS一张大家都会搞,但一帧一帧的PS谁吃得消,肯定是用软件来转的,如果山寨软件真有这么好的效果,那么官方为啥不用呢?
回复 支持 1 反对 0

使用道具 举报

随便玩玩 发表于 2019年8月18日 23:53:23 | 显示全部楼层
652070371 发表于 2019-8-18 23:00
" S) a6 H8 O& @) X$ p3 o$ W) |" M自己看评论,有人验证过,1080p原盘的

) F1 D3 q* q! @看评论?有人验证过了?他怎么验证的?你自己不会验证吗兄弟!要不要我跟你说说验证的方法?都是4K 原盘  版本不一样而已,德版、美版、俄版、还有台湾版、香港版!难道你喜欢的就是4K原盘、不喜欢的就不是? 不要听风就是雨,要学会自己辨别!
回复 支持 1 反对 0

使用道具 举报

COM赖恩 发表于 2019年8月18日 12:09:53 | 显示全部楼层
我还是等加长版的,,,可是现在我都不知道啥时候能下载到??
回复 支持 1 反对 0

使用道具 举报

1012401239 发表于 2019年9月8日 00:47:44 来自 移动版  | 显示全部楼层
88的应该有更多东西
回复 支持 反对

使用道具 举报

 楼主| hacken 发表于 2019年9月7日 22:18:48 | 显示全部楼层
ljason 发表于 2019年9月7日 21:32+ X8 E+ b( \+ O: l) X1 x
* 先进的色域映射:*9 Y) D  [& O+ E* u; k

' _; ~# N& Z9 b  N( h( C我们的转换是将原始 DCI 源颜色映射到 BT.2020 色 ...
. U! X, g& a1 E/ k/ v' g5 X5 m
多谢大神解惑
回复 支持 反对

使用道具 举报

yanglei 发表于 2019年9月6日 00:54:19 来自 移动版  | 显示全部楼层
谢谢分享!
回复 支持 反对

使用道具 举报

ilovekkkk 发表于 2019年9月5日 10:23:50 | 显示全部楼层
多谢指点,受教了
回复 支持 反对

使用道具 举报

 楼主| hacken 发表于 2019年9月4日 15:34:07 | 显示全部楼层
linlin7715 发表于 2019年9月4日 14:40
9 f7 s' o) X" G5 G. j比较过,明显88G的画面要胜过60G的一筹

* f. e0 d& K2 }6 R' f' Q8 ^嗯,看起来确实不错
回复 支持 反对

使用道具 举报

linlin7715 发表于 2019年9月4日 14:40:59 | 显示全部楼层
比较过,明显88G的画面要胜过60G的一筹
回复 支持 反对

使用道具 举报

 楼主| hacken 发表于 2019年9月4日 13:27:51 | 显示全部楼层
wudihaha123 发表于 2019年9月4日 10:00
. i* T' {1 n  S7 v; l两手准备吧,60G是官版,有收藏价值,88G是比较理想的观看版本,号称官方流出但是绝没那么容易就流出,80% ...
3 c! C+ N, x; Z/ {6 W
内存不足,把88g去了
回复 支持 反对

使用道具 举报

wudihaha123 发表于 2019年9月4日 10:00:52 | 显示全部楼层
两手准备吧,60G是官版,有收藏价值,88G是比较理想的观看版本,号称官方流出但是绝没那么容易就流出,80%是大神重压的,至于IMAX的问题只有当时花大价钱去影院看,如果没去就再也看不到了。
回复 支持 反对

使用道具 举报

 楼主| hacken 发表于 2019年9月3日 14:22:21 | 显示全部楼层
多谢指点,受教了
回复 支持 反对

使用道具 举报

frankeason 发表于 2019年8月29日 20:09:36 | 显示全部楼层
为什么我完全下载不动啊
回复 支持 反对

使用道具 举报

rainman1989 发表于 2019年8月29日 11:33:39 来自 移动版  | 显示全部楼层
senka4k 发表于 2019-8-22 21:11
& I6 m+ a0 |- ~4 r* y0 X( F& Q因為喜歡marvel,所以av4買了原盤,到手看看有何不一樣
, D# _0 |7 [# ]: ]# k9 j
有不一样吗?
回复 支持 反对

使用道具 举报

msn16 发表于 2019年8月29日 09:51:21 | 显示全部楼层

% e; X9 D4 @, \, ], o学习了 说的不错
回复 支持 反对

使用道具 举报

msn16 发表于 2019年8月29日 09:43:00 | 显示全部楼层
受教了,谢谢分享
回复 支持 反对

使用道具 举报

xiang77 发表于 2019年8月29日 02:16:30 | 显示全部楼层
四点钟方向 发表于 2019-8-18 15:29! Z' q8 u4 c- w2 P
你这样说的话版本就多了,估计妇联4 大大小小上百个版本是有的! 这个站的这个88.02G的,别人下载了DIY随 ...

3 H& @4 u2 j; z這個就是別人加了兩條意大利語音軌進去弄得,所以別下,浪費時間
回复 支持 反对

使用道具 举报

xiang77 发表于 2019年8月27日 12:34:32 | 显示全部楼层
本帖最后由 xiang77 于 2019-8-27 12:42 编辑 8 t2 c# H- o3 m
liwil 发表于 2019-8-18 14:08
0 r( N4 I6 F! L2 D# |3 S* c( ^還有88.71GB版本0 g  B, O' ^* O% O$ H2 x% i
" C: V( k7 _0 T
Avengers.Endgame.2019.INTERNAL.UHD.DYNAMIC.HDR-X..TrueHD.Atmos.7.1-Ar ...

- x+ r; A* k* P4 Z# d. w3 o* h这两个一样的,tenko3d是有专门PT站的,应该是先有的。88.71的发布者什么army90应该是在它基础上加了他自己国家的语言或字幕才变大了一点,没下这个,凭经验判断的。这两个我都没见到NFO文件。两个都下,太费时了。所以说发布资源时做一个NFO文件很有用。
回复 支持 反对

使用道具 举报

您需要登录后才可以回帖 登录 | 立即注册

本版积分规则

关注0

粉丝1

帖子1

发布主题
阅读排行 更多
广告位

扫描微信二维码

查看手机版网站

随时访问好4K

400-123-45678

在线客服(服务时间 9:00~18:00)

在线QQ客服
地址:广东省/深圳市
电邮:admin@hao4k.cn
电话:13800138000

Powered by Hao4K X3.3© 2016-2020 Hao4K影音|小黑屋|最新帖|网站地图