专注4K家庭影音, 服务千万家庭影音发烧友!

在线
客服

QQ咨询服务时间: 9:00-21:00

选择下列客服马上在线沟通:

快速
发帖

暂无
7*24小时客服服务热线

关注
微信

顶部

[播放相关] 复仇者联盟4 88g版本和60g的原盘有何不同

  [复制链接]
hacken 发表于 2019-8-18 11:09:35 | 显示全部楼层 |阅读模式 打印 上一主题 下一主题
本帖最后由 hacken 于 2019-8-18 11:11 编辑
; {  m1 t* b7 Y6 {& R6 f
9 Q0 w6 G1 D! B新手第一次发帖。最近发现复联4又出来一个88g版本,英文标题直译好像是内部版本、动态hdr-x?下载下来发现码率比60g原盘高不少,madvr渲染颜色也比之前的更鲜艳,很好奇这种版本怎么来的,有没有收藏价值。请各位大佬解惑,附图。; L, V! L  u# e$ ~! t# w
批注 2019-08-18 104726.png
! t: P" |2 M  w. Q9 a; U 60g.png 88g.png
0 C* l% N, |/ S( ? 60g_.png 88g..png
回复

使用道具 举报

 

精彩评论111

倒序浏览
饼饼 发表于 2019-8-19 17:48:16 | 显示全部楼层
88G版本是高动态HDR,亮度高达6000尼特的版本,目前应该是最好的版本,MKV格式,建议外挂个字幕。 收藏当然不错,可以看看钢铁战衣的蜘蛛侠脸上的灰。; @3 M' M1 J* q9 @( E4 ]" ?  n6 _9 f
! V  C8 i+ ~$ c) U& @+ Z7 e7 ^
95G版本是4000尼特,网友们纷纷表示过曝了,没有价值
: G, \: b6 W  g7 p! Z; }5 @
' K+ O9 r2 V) w- Y+ W+ J59-60G的原盘版本制作非常差倒是事实。
回复 支持 4 反对 0

使用道具 举报

 
饼饼 发表于 2019-8-21 20:57:45 | 显示全部楼层
其实,大多数玩玩下载看看原盘的兴趣爱好者,都没有太多专业的知识去分辨什么事真什么是假。
0 Y/ t' R0 s) U0 `0 U  `  l3 D( e. T9 S$ i7 x9 E
色彩的表现到底是好还是不好,很多人也没有用校色仪去调教过自己的显示设备。
3 }; v. e" z+ S5 B/ V
) y' r! O7 {6 U) C) x) g所以,玩这个看这个,看你喜欢的就好,无所谓他的资源好还是不好,你下回来看觉得好就可以了。
: o) m. X5 B9 v8 r7 }: x# }; x
# ?  P+ [# E$ m, m5 y如果非要争论个谁输谁赢,唯一的办法是PK,多去看别人家的设备表现,再对比自己的设备表现。: |$ m2 k. S( Z2 L* F. B
不要完全相信屏摄,好投影可能应为拍照技术不好或者拍照技术不行拍不好,差器材也可以经过拍照器材好技术好给拍的比较好。. u, j0 w& M5 p1 P7 {
设备参数当然只是一个参考,有人玩的很好,有人玩的不好都是有可能的。大家砸钱也不一样。
回复 支持 1 反对 0

使用道具 举报

 
short_hair 发表于 2019-9-19 01:11:14 来自手机 | 显示全部楼层
布吉岛咋啦
回复 支持 0 反对 1

使用道具 举报

 
ljason 发表于 2019-9-7 21:32:52 | 显示全部楼层
* 先进的色域映射:*
+ O8 O5 H  u& V/ o* y( t3 M' w; j! j6 m0 |* q
我们的转换是将原始 DCI 源颜色映射到 BT.2020 色彩范围。这样,您可以确保在 HDR 电视中观看原始颜色。8 n3 w" p8 x5 b- O) f
, _2 g& B. ]5 j3 U' W
* 先进的&#8194Q HDR 分级:*
2 u7 ]8 E4 b0 p) |6 @, l+ p
0 e1 [' {" Y# i3 Y) d" S3 |. Q全范围数字中间分级,具有更高的精度。
$ w4 g+ A% {3 u2 U7 r0 P5 h% S
" d9 C. x2 b3 r: W! n' g”我们的 HDR 分级从 SDR 原始信号源完成,以获得所有曝光和最佳可能的高动态范围视频。, K  y0 f% E! v6 g# N
. V. S! u, \$ v' Q/ _, H2 N3 P
您可以与杜比视界进行比较。主要区别在于曝光,在工作室等级中,高光甚至没有正确地放置在 HDR 范围内,因此反射 / 镜面反射光和真实感并未完全达到效果。我们将所有 HDR 曝光作用于视频,使结果更加真实。“
$ H! R/ s% Q. V- }- p- u1 R5 b2 M) A2 B& {  e' t
以上为TEKNO3D官网解释
回复 支持 1 反对 0

使用道具 举报

 
shen_chu_feng 发表于 2019-8-28 14:37:08 | 显示全部楼层
下完后大概看了看,差异比较明显。- I, E7 y5 `8 Y1 I8 a3 n
两者(MKV)纯视频文件相同数据项目上的区别:
8 O' R& b; d& L4 m1 @' D; r5 M6 [7 |8 j2 H' D6 e% S. J+ J# N
Video6 k: a' p5 q) G
ID                             : 1
2 b' z) k% i5 w$ S8 fFormat                         : HEVC# w; o4 K9 {4 T  z
Format/Info                    : High Efficiency Video Coding0 Q) E1 v- g! r# }8 t/ H
Format profile                 : Main 10@L5.1@High
1 T* k9 D7 s1 u+ g' x% dHDR format                     : SMPTE ST 2086, HDR10 compatible
/ x9 P' C. p$ ACodec ID                       : V_MPEGH/ISO/HEVC
' Z: h. ?! S+ z+ ZDuration                       : 3 h 1 min
: ]% f/ o  c. z/ jBit rate                       : 36.0 Mb/s; {  [8 g* J& a6 M
Width                          : 3 840 pixels, o; n* p+ r( q: ?
Height                         : 2 160 pixels
0 ?# n" G2 H% u9 G4 ~3 T+ p. yDisplay aspect ratio           : 16:9
4 m4 E+ W5 D8 |! Q! ~2 PFrame rate mode                : Constant
8 `- h) V7 G8 r8 L/ l, b1 IFrame rate                     : 23.976 (24000/1001) FPS
5 j$ T# \' N' N2 I4 b1 ^* q' QColor space                    : YUV/ C2 z6 {% u( R, A( ~$ r0 B% t
Chroma subsampling             : 4:2:0 (Type 2)* [* z1 B- C0 {. v4 Q0 G
Bit depth                      : 10 bits) \% Z; m0 J8 d0 k- F# d
Bits/(Pixel*Frame)             : 0.181
* |9 s: Q: Y. H$ ~Stream size                    : 45.6 GiB (88%)/ D3 N6 }- y5 t, {3 ]
Writing library                : ATEME Titan File 3.9.0 (4.9.0.0)        
' _  B6 q6 M/ r3 Q2 E' ]7 s& aLanguage                       : English
, b" e0 V, ^4 W6 x+ N" d5 HDefault                        : Yes+ Z+ [, o) v$ y& P0 Q; l+ x
Forced                         : No" d) \( [# U; r1 j1 {  r! R0 [
Color range                    : Limited: b$ g. @6 |: J9 K( [& O" |
Color primaries                : BT.20206 G& a9 k' F: ]) Y  }5 l
Transfer characteristics       : PQ- `, p5 |) X9 i4 F! f8 r9 b4 F
Matrix coefficients            : BT.2020 non-constant0 u$ Z7 z0 E& a2 I
Mastering display color primar : Display P37 @  b2 V8 @% ~- @) O
Mastering display luminance    : min: 0.0050 cd/m2, max: 4000 cd/m2* O7 J9 C, B0 j: b8 o- ~( ~
SEI_rbsp_stop_one_bit          : Missing  W5 q  f$ U1 B

' X; q" L. r7 `7 O1 d6 B8 p$ y- @3 e1 Z
Video
7 ?' V& [" y7 u7 e/ C- lID                             : 1
; s0 M3 n0 q# H- S* r" ~Format                         : HEVC' |2 N( |/ }$ ]7 K$ w% S% ~
Format/Info                    : High Efficiency Video Coding
+ C) ?; r  r- k* O0 qFormat profile                 : Main 10@L5.1@High/ G( \! k9 J  u6 o
HDR format                     : SMPTE ST 2086, HDR10 compatible+ q1 f8 Q8 f* C6 J, n+ `" ]& O
Codec ID                       : V_MPEGH/ISO/HEVC
/ c: K" L. L$ ~Duration                       : 3 h 1 min" ^" t/ y8 d$ B- \# L* q  _
Bit rate                       : 64.0 Mb/s! ]4 W) }% ?7 X9 T3 s
Width                          : 3 840 pixels
! X2 X2 q. w1 UHeight                         : 2 160 pixels# p. ?# l" y- c% {; e8 q9 B
Display aspect ratio           : 16:9! Y) E: O$ F( C% R
Frame rate mode                : Constant
( ]2 D5 e2 r" _Frame rate                     : 23.976 (24000/1001) FPS4 O- P/ C  t4 w* T2 D' G
Standard                       : PAL6 e) U: p! L. r( v( Q; k
Color space                    : YUV
) \* s4 C3 B5 |1 m( rChroma subsampling             : 4:2:0 (Type 2)( x1 d4 J  g+ A1 q
Bit depth                      : 10 bits
; ]3 r* k7 `0 F; {; L5 eBits/(Pixel*Frame)             : 0.3225 L0 C0 Z$ n* t5 G" c
Stream size                    : 81.0 GiB (92%)" R* o/ i, m: ~; ~( u  c: ^4 `4 l
Title                          : Avengers.Endgame.2019.INTERNAL.UHD.DYNAMIC.HDR-X..TrueHD.Atmos.7.1-TEKNO3D* K' Q& s# _6 ]) N/ C! I
Language                       : English5 X$ l: L7 C* T- ~  l! i7 c3 T
Default                        : Yes) B+ W/ B" d6 n
Forced                         : No1 |. a, l2 ~2 m0 S7 }" q
Color range                    : Limited
, j) E9 o0 y, _7 ~! R( yColor primaries                : BT.2020
# j4 k1 t+ n) w( l% MTransfer characteristics       : PQ' q6 v- Z) K# w7 q
Matrix coefficients            : BT.2020 non-constant
( @' V, ?& v3 t* N' T4 J3 fMastering display color primar : Display P36 H' ~: s4 y% W# C
Mastering display luminance    : min: 0.0050 cd/m2, max: 6000 cd/m28 n& k! f; R! Q- u" {0 {
Maximum Content Light Level    : 6000 cd/m2
3 o# V/ W. K8 b, a! }1 j1 V8 GMaximum Frame-Average Light Le : 640 cd/m2 1.png / W" X6 k4 D5 l3 @; @8 I
2.png ) x5 G* D  J  X
3.png
+ g2 J( ~5 {5 b% P/ o' ^0 x+ Q
1 o4 Q9 p& ]3 C. S0 s7 Q
5 Y5 p/ r; R2 b# j/ ?* V5 ^4 X2 Z1 Y) p. q' L1 ^
贴下两者同一屏幕播放视觉上的区别(PotPlayer支持同一屏幕多视频同时播放): G  W/ }0 S7 v( I
( Y' J) S5 v) D! a4 v0 R
回复 支持 1 反对 0

使用道具 举报

 
michaellv 发表于 2019-8-23 17:45:49 | 显示全部楼层
这东东其实就是网友用山寨软件DIY出来的,以前UHD破解前俄罗斯压制组也有过类似的乱搞!
$ z, Y  b- F5 P9 Z+ |" P( M视频这东东不像是照片,PS一张大家都会搞,但一帧一帧的PS谁吃得消,肯定是用软件来转的,如果山寨软件真有这么好的效果,那么官方为啥不用呢?
回复 支持 1 反对 0

使用道具 举报

 
随便玩玩 发表于 2019-8-18 23:53:23 | 显示全部楼层
652070371 发表于 2019-8-18 23:00
# {  c6 r: [$ @) _9 Y; s7 t自己看评论,有人验证过,1080p原盘的
" Y9 ~  e- Q0 K  V
看评论?有人验证过了?他怎么验证的?你自己不会验证吗兄弟!要不要我跟你说说验证的方法?都是4K 原盘  版本不一样而已,德版、美版、俄版、还有台湾版、香港版!难道你喜欢的就是4K原盘、不喜欢的就不是? 不要听风就是雨,要学会自己辨别!
回复 支持 1 反对 0

使用道具 举报

 
COM赖恩 发表于 2019-8-18 12:09:53 | 显示全部楼层
我还是等加长版的,,,可是现在我都不知道啥时候能下载到??
回复 支持 1 反对 0

使用道具 举报

 
南风不知秋意 发表于 前天 17:31 来自手机 | 显示全部楼层
差异有点明显
回复 支持 反对

使用道具 举报

 
sqjszh 发表于 前天 17:11 来自手机 | 显示全部楼层
ljason 发表于 2019-9-7 21:32
4 a' @" x! D3 }) F1 Z* 先进的色域映射:*
) W4 S6 f+ _8 }) {) \
9 c) k! c( @7 k8 S0 }' ^1 c+ z& Z5 C我们的转换是将原始 DCI 源颜色映射到 BT.2020 色 ...

- \" D* \) P) @3 C这解释太专业了!
回复 支持 反对

使用道具 举报

 
1589523354 发表于 前天 08:33 来自手机 | 显示全部楼层
基本上容量越大画质越好
回复 支持 反对

使用道具 举报

 
djdavidchen 发表于 3 天前 | 显示全部楼层
88G的有没有自带字幕的?下了的说一声
回复 支持 反对

使用道具 举报

 
hacken 发表于 2020-4-17 19:36:29 | 显示全部楼层
2766265955 发表于 2020-4-17 19:23& {* ]7 E* i9 A/ j' f. {' ~3 Q  G
阿斯顿撒大所大所大所大所大所大所大所多

$ v) @( L+ l  H) s你有毛病啊刷个没完
回复 支持 反对

使用道具 举报

 
 楼主| dddi 发表于 2019-10-26 09:48:36 | 显示全部楼层
长了不少知识,谢谢分享。4 W/ I5 A4 p+ S6 }
回复 支持 反对

使用道具 举报

 
Joachim1792 发表于 2019-10-10 18:18:50 来自手机 | 显示全部楼层
88有大音轨是真的,不过大神还说了其他区别,学到了
回复 支持 反对

使用道具 举报

 
 
xlzzhx 发表于 2019-10-9 21:49:41 | 显示全部楼层
饼饼 发表于 2019年10月9日 21:07, w- H- T+ G& ~+ R
字幕文件改成影片文件同名即可,放在同一个目录下,POTpalyer或Mpc播放器都会自动加载,电视机播放的话, ...

( g" x) v: Z- v- a# [谢谢啦,再研究一下
回复 支持 反对

使用道具 举报

 
饼饼 发表于 2019-10-9 21:07:27 | 显示全部楼层
xlzzhx 发表于 2019年10月8日 23:01
: \, W! i4 C  `+ q3 C小白想知道,怎么挂字幕
1 S: P' o% [+ X5 x; z7 z- X0 e. F- K
字幕文件改成影片文件同名即可,放在同一个目录下,POTpalyer或Mpc播放器都会自动加载,电视机播放的话,下载SRT格式的即可
回复 支持 反对

使用道具 举报

 
xlzzhx 发表于 2019-10-8 23:01:40 | 显示全部楼层
饼饼 发表于 2019年8月19日 17:481 R% {$ B5 _7 E2 {3 F( {
88G版本是高动态HDR,亮度高达6000尼特的版本,目前应该是最好的版本,MKV格式,建议外挂个字幕。 收藏当然 ...

$ \6 F9 g6 M9 k+ w小白想知道,怎么挂字幕
回复 支持 反对

使用道具 举报

 
pcsms_BowSPUO5 发表于 2019-9-21 17:35:26 | 显示全部楼层
xiang77 发表于 2019年8月29日 02:16# p/ s5 h% s! n8 w) g, e* A( B& D% P
這個就是別人加了兩條意大利語音軌進去弄得,所以別下,浪費時間

. c+ T2 V& H# Z) [, X+ h/ l  b9 P6 j幸好没下,不然浪费时间
回复 支持 反对

使用道具 举报

 
l1d2j9 发表于 2019-9-20 15:36:13 | 显示全部楼层
突然这么一说我就想起来了!好多电影看起来效果很好,毕竟4K嘛!可是为啥感觉好暗啊!就像晚上的场景一样无论是82G的变形金刚5还是其他20G左右的都是这样!很困惑啊
回复 支持 反对

使用道具 举报

 
1012401239 发表于 2019-9-8 00:47:44 来自手机 | 显示全部楼层
88的应该有更多东西
回复 支持 反对

使用道具 举报

 
hacken 发表于 2019-9-7 22:18:48 | 显示全部楼层
ljason 发表于 2019年9月7日 21:32+ M& y& J  v5 V% [3 Y
* 先进的色域映射:*
# k9 z* R  _6 j, a& w& S  d/ t* u4 z" H& g" ~% P/ m8 X# d
我们的转换是将原始 DCI 源颜色映射到 BT.2020 色 ...
. ~! w' q1 l1 a* x5 f) D
多谢大神解惑
回复 支持 反对

使用道具 举报

 
 楼主| yanglei 发表于 2019-9-6 00:54:19 来自手机 | 显示全部楼层
谢谢分享!
回复 支持 反对

使用道具 举报

 
您需要登录后才可以回帖 登录 | 立即注册

本版积分规则


2关注

8粉丝

2帖子

排行榜
社区广告

关注微信公众号第一时间推送精彩

官方微信

手机访问

Hao4K影音

专注4k家庭影音,提供家庭影音社区,家庭影音器材库,影音问答平台,影音商城,服务千万家庭影音用户。

本站内容部分由用户自主分享和转载自互联网,转载目的在于传递更多信息,并不代表本网赞同其观点和对其真实性负责。

如有侵权、违反国家法律政策行为,请联系我们,我们会第一时间及时清除和处理!

举报反馈邮箱:admin@hao4k.cn

Copyright   ©2019-2020  Hao4K影音粤公网安备 44030302001429号     ( 粤ICP备18155646号-1 )|网站地图