微博 微信

Hao4K影音

[播放相关] 复仇者联盟4 88g版本和60g的原盘有何不同

2020-5-25 08:33:14 385169 124 |只看大图 回帖奖励 |正序浏览 |阅读模式

hacken

2019-8-18 11:09:35

本帖最后由 hacken 于 2019-8-18 11:11 编辑 4 R* ]8 u. R$ r

+ H7 x8 C8 i. d, L1 q& t新手第一次发帖。最近发现复联4又出来一个88g版本,英文标题直译好像是内部版本、动态hdr-x?下载下来发现码率比60g原盘高不少,madvr渲染颜色也比之前的更鲜艳,很好奇这种版本怎么来的,有没有收藏价值。请各位大佬解惑,附图。
1 ]- f5 d8 H9 v8 T! ^ 批注 2019-08-18 104726.png
- d. f: K2 J) n0 s) n& q( g# d 60g.png 88g.png 2 D* v' j; R( m9 s
60g_.png 88g..png
回复

使用道具 举报

饼饼 发表于 2019-8-19 17:48:16

饼饼 推荐

2019-8-19 17:48:16

88G版本是高动态HDR,亮度高达6000尼特的版本,目前应该是最好的版本,MKV格式,建议外挂个字幕。 收藏当然不错,可以看看钢铁战衣的蜘蛛侠脸上的灰。
1 Z8 n0 e: L9 k3 o& G/ J' x" Q
& }" z' X7 K, V95G版本是4000尼特,网友们纷纷表示过曝了,没有价值
7 `. k& B, X# m7 s: v- z4 A$ k6 \$ e1 ?
59-60G的原盘版本制作非常差倒是事实。
回复 支持 4 反对 0

使用道具 举报

michaellv 发表于 2019-8-23 17:45:49

michaellv 推荐

2019-8-23 17:45:49

这东东其实就是网友用山寨软件DIY出来的,以前UHD破解前俄罗斯压制组也有过类似的乱搞!, w3 s( ~& b9 q7 o* y
视频这东东不像是照片,PS一张大家都会搞,但一帧一帧的PS谁吃得消,肯定是用软件来转的,如果山寨软件真有这么好的效果,那么官方为啥不用呢?
回复 支持 2 反对 0

使用道具 举报

heartzc 发表于 2020-8-10 00:08:40 Hao4K手机版

heartzc 推荐

2020-8-10 00:08:40

好看就成,管他啥区别。
回复 支持 0 反对 1

使用道具 举报

饼饼 发表于 2019-8-21 20:57:45

饼饼 推荐

2019-8-21 20:57:45

其实,大多数玩玩下载看看原盘的兴趣爱好者,都没有太多专业的知识去分辨什么事真什么是假。( L4 F8 D8 `! u6 B/ F2 S- `& W
. c9 d$ w& p; Q9 |& N3 k/ `
色彩的表现到底是好还是不好,很多人也没有用校色仪去调教过自己的显示设备。
3 `0 a" D4 ]  N2 H
- w, a" @* i( }所以,玩这个看这个,看你喜欢的就好,无所谓他的资源好还是不好,你下回来看觉得好就可以了。0 Y& D5 q- l! ]  I: m# z& b
# X% F9 T: l- }% N+ a
如果非要争论个谁输谁赢,唯一的办法是PK,多去看别人家的设备表现,再对比自己的设备表现。
8 x/ ?% a- e' h/ E4 s3 S" C不要完全相信屏摄,好投影可能应为拍照技术不好或者拍照技术不行拍不好,差器材也可以经过拍照器材好技术好给拍的比较好。- n( V8 ?% S% c# ?0 P+ }# \
设备参数当然只是一个参考,有人玩的很好,有人玩的不好都是有可能的。大家砸钱也不一样。
回复 支持 1 反对 0

使用道具 举报

short_hair 发表于 2019-9-19 01:11:14 Hao4K手机版

short_hair 推荐

2019-9-19 01:11:14

布吉岛咋啦
回复 支持 0 反对 1

使用道具 举报

ljason 发表于 2019-9-7 21:32:52

ljason 推荐

2019-9-7 21:32:52

* 先进的色域映射:*
' F4 z5 D* y+ R+ s  y! n! M; p0 ^, _9 {# ?
我们的转换是将原始 DCI 源颜色映射到 BT.2020 色彩范围。这样,您可以确保在 HDR 电视中观看原始颜色。
# ]) f: e, B, N- g7 L9 p
1 d, o  g: f6 }; m$ |# g% ]7 {+ ~* 先进的&#8194Q HDR 分级:*1 p9 X2 C0 {$ ]1 B
% {9 Z7 j9 E, p* U5 E9 I, q5 ?
全范围数字中间分级,具有更高的精度。1 n& n7 B1 `# z8 n  q' C! z- ~

; l7 D  E1 U  s  {$ _/ w! Z”我们的 HDR 分级从 SDR 原始信号源完成,以获得所有曝光和最佳可能的高动态范围视频。
1 {; T$ B6 H/ V  [9 {. F9 |) H* J3 a8 g
您可以与杜比视界进行比较。主要区别在于曝光,在工作室等级中,高光甚至没有正确地放置在 HDR 范围内,因此反射 / 镜面反射光和真实感并未完全达到效果。我们将所有 HDR 曝光作用于视频,使结果更加真实。“  l& N' Q: j% \8 @
6 `0 d- e6 p; ]
以上为TEKNO3D官网解释
回复 支持 1 反对 0

使用道具 举报

shen_chu_feng 发表于 2019-8-28 14:37:08

shen_chu_feng 推荐

2019-8-28 14:37:08

下完后大概看了看,差异比较明显。
: l" L: x; v- q9 o两者(MKV)纯视频文件相同数据项目上的区别:. N( f& {2 e7 S+ V2 h
9 L. [/ V( `% {/ P. i& W
Video# g  q  _2 ?6 I  m
ID                             : 1
5 U, B9 d/ t' w# i8 O9 bFormat                         : HEVC& k% V& f4 k7 T2 l
Format/Info                    : High Efficiency Video Coding
3 D- }) s- h4 K3 n0 u4 T2 tFormat profile                 : Main 10@L5.1@High
4 G8 f2 ~2 y0 T* X# NHDR format                     : SMPTE ST 2086, HDR10 compatible
4 T; N  {+ i9 [( p6 ~Codec ID                       : V_MPEGH/ISO/HEVC
' w) L8 W1 i1 ]; b4 XDuration                       : 3 h 1 min7 j5 y2 T  w6 f' z
Bit rate                       : 36.0 Mb/s' e" b4 a, [8 A( f7 l. H
Width                          : 3 840 pixels9 C: V) A5 \0 h; Y. `$ M
Height                         : 2 160 pixels! l/ R! a1 L/ _! o
Display aspect ratio           : 16:9
7 ^$ _" p. C3 J0 r( L$ DFrame rate mode                : Constant9 W0 h* o! A* C+ L1 u6 P! S6 V3 W0 T& V
Frame rate                     : 23.976 (24000/1001) FPS; `* j# g/ v9 z  t/ n% A) j$ ]# }
Color space                    : YUV
( S. s( t7 `; G# w# UChroma subsampling             : 4:2:0 (Type 2)
. J& f$ |; [+ ?/ vBit depth                      : 10 bits
! v# H+ b7 {1 |0 BBits/(Pixel*Frame)             : 0.181, v! n. Y5 y0 @
Stream size                    : 45.6 GiB (88%)
; `9 M% P$ v7 r5 z9 P5 cWriting library                : ATEME Titan File 3.9.0 (4.9.0.0)        
' B. ]: h+ p. G; T9 lLanguage                       : English
* r- L( [) ?" ~$ G- r! h+ gDefault                        : Yes5 _" E7 l$ p, C* Z+ N; p) y
Forced                         : No
8 T( d! k. X6 ]6 N- yColor range                    : Limited/ S8 i/ G8 J0 i- q3 x
Color primaries                : BT.2020
6 a- D: L) h+ O; j. @Transfer characteristics       : PQ& {& B* g. ~6 T4 |
Matrix coefficients            : BT.2020 non-constant
" E2 b* c) k9 s7 u" a6 S# Q# kMastering display color primar : Display P3
7 o! k5 g- S4 |4 T0 |Mastering display luminance    : min: 0.0050 cd/m2, max: 4000 cd/m2
! I1 z& d! v# T+ y5 _  L6 ASEI_rbsp_stop_one_bit          : Missing; s9 y' |% ]- F7 p3 }
( b) |& J) Z& O4 Z5 y$ {$ T9 z. X
2 q* S7 l  \( Z3 K8 Z) N: }
Video6 [9 I: `3 _; I) C1 l2 K4 _
ID                             : 1
% q: [4 [+ A2 Y9 G" t' N) iFormat                         : HEVC
( c' j2 h8 N0 ^Format/Info                    : High Efficiency Video Coding( f+ l) a: \$ ?6 Y! P
Format profile                 : Main 10@L5.1@High# g- V0 @8 ?/ l. g8 C  g* ~
HDR format                     : SMPTE ST 2086, HDR10 compatible3 S3 W& C0 \  j% B( y) U! j
Codec ID                       : V_MPEGH/ISO/HEVC2 J! B. I$ P  M) u$ H
Duration                       : 3 h 1 min
/ e: o0 P  f* e2 o5 H* Y8 F4 PBit rate                       : 64.0 Mb/s
: G7 B6 y% b; d9 M4 b5 vWidth                          : 3 840 pixels. j! S2 [9 R: ?8 ~6 G$ B6 v
Height                         : 2 160 pixels
8 i1 t3 ]2 G0 r% l* [# u5 hDisplay aspect ratio           : 16:9
% i6 V( x9 E  L9 jFrame rate mode                : Constant
8 b8 G# D7 e; v, s' ^) UFrame rate                     : 23.976 (24000/1001) FPS/ o  ?+ p' C5 M2 P- |2 t8 f4 ~
Standard                       : PAL" d8 J' B& {2 W- E5 `
Color space                    : YUV
8 i' c, F! B* z4 H1 PChroma subsampling             : 4:2:0 (Type 2)1 m, A7 h0 @2 m& g# y
Bit depth                      : 10 bits+ u2 x- b3 E; D5 ?4 K
Bits/(Pixel*Frame)             : 0.322
2 x5 A* v9 r6 r0 v# GStream size                    : 81.0 GiB (92%)1 `1 b. |7 W4 j( I6 o+ `
Title                          : Avengers.Endgame.2019.INTERNAL.UHD.DYNAMIC.HDR-X..TrueHD.Atmos.7.1-TEKNO3D. D) N! d9 n0 ]. a0 l; a8 \
Language                       : English% N0 d3 q+ e- _4 [# f. c
Default                        : Yes' m" n1 q& s: D/ B- Q4 G
Forced                         : No7 D. q8 j2 ?. ?4 h4 k7 i6 l
Color range                    : Limited( O! N; r8 N! }+ n: c5 n  _
Color primaries                : BT.2020( q8 h3 ]+ M1 c  }9 N
Transfer characteristics       : PQ/ }# r4 G, l& P' ~
Matrix coefficients            : BT.2020 non-constant& d" I  u$ p+ L
Mastering display color primar : Display P3# i: D  K4 T) m* D6 Z. X. D
Mastering display luminance    : min: 0.0050 cd/m2, max: 6000 cd/m2& p# x3 b( {/ W2 Q, h! Y  W7 J5 ?
Maximum Content Light Level    : 6000 cd/m2/ _7 A& w0 ]1 c* N' Y( J; k: K
Maximum Frame-Average Light Le : 640 cd/m2 1.png 3 c8 x8 y3 C/ i; ^; a+ ?
2.png : D% c+ _3 O& H( A: ~( y$ ?8 v& I
3.png 1 D& Z; L8 X( ]3 H4 N
; k- A9 b3 m% L/ ?, j

7 C) \* o  P* s4 d6 {, U8 s$ }' f+ u2 U/ i: f
贴下两者同一屏幕播放视觉上的区别(PotPlayer支持同一屏幕多视频同时播放)
1 a# `# q" z& j4 n8 q: C3 g) R% l0 Q' Q
回复 支持 1 反对 0

使用道具 举报

随便玩玩 发表于 2019-8-18 23:53:23

随便玩玩 推荐

2019-8-18 23:53:23

652070371 发表于 2019-8-18 23:00) s8 \4 ~$ N, \
自己看评论,有人验证过,1080p原盘的
( n) t: E" J5 y$ n
看评论?有人验证过了?他怎么验证的?你自己不会验证吗兄弟!要不要我跟你说说验证的方法?都是4K 原盘  版本不一样而已,德版、美版、俄版、还有台湾版、香港版!难道你喜欢的就是4K原盘、不喜欢的就不是? 不要听风就是雨,要学会自己辨别!
回复 支持 1 反对 0

使用道具 举报

COM赖恩 发表于 2019-8-18 12:09:53

COM赖恩 推荐

2019-8-18 12:09:53

我还是等加长版的,,,可是现在我都不知道啥时候能下载到??
回复 支持 1 反对 0

使用道具 举报

好11111 发表于 2021-4-26 13:29:46

好11111 115

2021-4-26 13:29:46

谢谢!大爱楼主!
回复 支持 反对

使用道具 举报

LvWADE 发表于 2021-4-5 15:42:50

LvWADE 114

2021-4-5 15:42:50

大的不一定好,小的不一定差
回复 支持 反对

使用道具 举报

uv管 发表于 2021-4-5 14:54:03

uv管 113

2021-4-5 14:54:03

不一定大的就是好的
回复 支持 反对

使用道具 举报

LvWADE 发表于 2021-3-24 10:25:27

LvWADE 112

2021-3-24 10:25:27

都是大神
回复 支持 反对

使用道具 举报

heartzc 发表于 2020-8-8 00:04:38 Hao4K手机版

heartzc 111

2020-8-8 00:04:38

越大越好吧,一般是这样。
回复 支持 反对

使用道具 举报

major613 发表于 2020-8-6 00:58:56

major613 110

2020-8-6 00:58:56

我是来学习的,长了不少知识,谢谢分享。
回复 支持 反对

使用道具 举报

yjpp 发表于 2020-7-29 09:06:45 Hao4K手机版

yjpp 109

2020-7-29 09:06:45

88G版本播放效果最好。
回复 支持 反对

使用道具 举报

heartzc 发表于 2020-7-27 00:21:19 Hao4K手机版

heartzc 108

2020-7-27 00:21:19

这个真不好讲,单从体积大小是看不出来的。
回复 支持 反对

使用道具 举报

heartzc 发表于 2020-7-25 00:21:35 Hao4K手机版

heartzc 107

2020-7-25 00:21:35

差别真的是太大了!
回复 支持 反对

使用道具 举报

Yyon 发表于 2020-7-4 08:31:47 Hao4K手机版

Yyon 106

2020-7-4 08:31:47

88G的画面要胜过60G的
回复 支持 反对

使用道具 举报

gcz6236068 发表于 2020-6-22 00:46:19

gcz6236068 105

2020-6-22 00:46:19

youximang 发表于 2019-8-18 13:00
; P9 G" H+ l- {7 I. S我只下载Remux版
2 Q: e+ ]7 M, F. |
这个版本点亮不了杜比视界的, n  w1 E# Y( ~! R& z( o* _9 l
回复 支持 反对

使用道具 举报

gcz6236068 发表于 2020-6-22 00:43:34

gcz6236068 104

2020-6-22 00:43:34

D之一族 发表于 2019-8-24 18:44/ F5 F+ y3 t3 F+ E
哥我按你的方法加了MAD渲染,效果跟原来一样,亮度也没变。其实只要像素着色下面三个勾上就跟MAD效果一样 ...

( F7 c8 O7 ]/ _6 z5 D上播放机吧,上了你就知道你之前都是瞎玩了
* y3 g* q) c, j! P& Z
回复 支持 反对

使用道具 举报

gcz6236068 发表于 2020-6-22 00:39:54

gcz6236068 103

2020-6-22 00:39:54

l1d2j9 发表于 2019-9-20 15:36
8 Z1 U( X& J5 |; [! B: `突然这么一说我就想起来了!好多电影看起来效果很好,毕竟4K嘛!可是为啥感觉好暗啊!就像晚上的场景一样无 ...

& S$ B* Y1 C* z3 @. C% i你需要蓝光播放器,另外电视开HDR了吗?还有很多片子必须点亮杜比视界效果就好了
/ g" k" F$ k- x
回复 支持 反对

使用道具 举报

1479106151 发表于 2020-6-1 22:05:06 Hao4K手机版

1479106151 102

2020-6-1 22:05:06

88G的那个画质肯定好
回复 支持 反对

使用道具 举报

南风不知秋意 发表于 2020-5-25 17:31:01 Hao4K手机版

南风不知秋意 101

2020-5-25 17:31:01

差异有点明显
回复 支持 反对

使用道具 举报

sqjszh 发表于 2020-5-25 17:11:28 Hao4K手机版

sqjszh 100

2020-5-25 17:11:28

ljason 发表于 2019-9-7 21:32
4 _" X7 u2 }* f; k4 n* 先进的色域映射:*! m2 d: Z5 G$ m0 [. D- z) E

4 K: K1 o! i# ]' i8 Y0 v% X我们的转换是将原始 DCI 源颜色映射到 BT.2020 色 ...
/ q9 C1 Z' ]5 M7 ]
这解释太专业了!
回复 支持 反对

使用道具 举报

1589523354 发表于 2020-5-25 08:33:14 Hao4K手机版

1589523354 99

2020-5-25 08:33:14

基本上容量越大画质越好
回复 支持 反对

使用道具 举报

   发表回复

您需要登录后才可以回帖 登录 | 立即注册

返回列表 本版积分规则

:
青铜玩家
:
未填写

主题

帖子

积分471

  • 在线客服

  • 返回顶部