专注4K家庭影音, 服务千万家庭影音发烧友!

[播放相关] 复仇者联盟4 88g版本和60g的原盘有何不同

 
hacken 发表于 2019-8-18 11:09:35 | 显示全部楼层
本帖最后由 hacken 于 2019-8-18 11:11 编辑 ( L9 r6 j% B3 i3 G3 A0 ^

; h. I, b! V# F' {5 {4 y$ O/ }5 l; }新手第一次发帖。最近发现复联4又出来一个88g版本,英文标题直译好像是内部版本、动态hdr-x?下载下来发现码率比60g原盘高不少,madvr渲染颜色也比之前的更鲜艳,很好奇这种版本怎么来的,有没有收藏价值。请各位大佬解惑,附图。
% p2 {7 ?2 s  W4 B. }7 U0 C+ b 批注 2019-08-18 104726.png
1 f" {) g' H' h2 \; { 60g.png 88g.png 1 u$ ^6 g& F( t* `
60g_.png 88g..png
回复

使用道具 举报

发烧友评论122

倒序浏览
饼饼 发表于 2019-8-19 17:48:16 | 显示全部楼层
88G版本是高动态HDR,亮度高达6000尼特的版本,目前应该是最好的版本,MKV格式,建议外挂个字幕。 收藏当然不错,可以看看钢铁战衣的蜘蛛侠脸上的灰。
& C$ t1 k$ I) n& g5 J  a
$ z* W; l3 H8 \1 t9 P' Q& n95G版本是4000尼特,网友们纷纷表示过曝了,没有价值, ^) I5 K* F# V5 g6 x( j
: D4 F" C! e6 d
59-60G的原盘版本制作非常差倒是事实。
回复 支持 4 反对 0

使用道具 举报

heartzc 发表于 前天 00:08 Hao4K手机版 | 显示全部楼层
好看就成,管他啥区别。
回复 支持 0 反对 1

使用道具 举报

饼饼 发表于 2019-8-21 20:57:45 | 显示全部楼层
其实,大多数玩玩下载看看原盘的兴趣爱好者,都没有太多专业的知识去分辨什么事真什么是假。% f' S! L+ [: C! ~3 g2 R
7 S) |4 v9 V: B" n8 }
色彩的表现到底是好还是不好,很多人也没有用校色仪去调教过自己的显示设备。) B5 c; @" a9 z  H% W$ h' x9 D  M

$ [* p7 ]% X: x. F9 W: K* [所以,玩这个看这个,看你喜欢的就好,无所谓他的资源好还是不好,你下回来看觉得好就可以了。- \+ O& [* p# _& |1 t1 C
) o) D' o  N/ y" B+ m
如果非要争论个谁输谁赢,唯一的办法是PK,多去看别人家的设备表现,再对比自己的设备表现。  _1 Z, G1 t4 q4 m# |7 T" W
不要完全相信屏摄,好投影可能应为拍照技术不好或者拍照技术不行拍不好,差器材也可以经过拍照器材好技术好给拍的比较好。0 P8 K# o. u1 X; W
设备参数当然只是一个参考,有人玩的很好,有人玩的不好都是有可能的。大家砸钱也不一样。
回复 支持 1 反对 0

使用道具 举报

ljason 发表于 2019-9-7 21:32:52 | 显示全部楼层
* 先进的色域映射:*
5 e5 k$ ]# x4 ~6 X$ Y( r
/ l9 t6 R6 d! h  J6 n我们的转换是将原始 DCI 源颜色映射到 BT.2020 色彩范围。这样,您可以确保在 HDR 电视中观看原始颜色。
: G! L' Q9 e5 G% e
1 m' j' O1 |* B9 P% i9 K; |* 先进的&#8194Q HDR 分级:*
0 [6 |9 c+ P; b2 g3 ?7 e4 }% b& b: Q9 o( N( k/ I. h
全范围数字中间分级,具有更高的精度。/ C( n2 s2 c% h
5 L4 b3 D# O7 A$ W& `7 [
”我们的 HDR 分级从 SDR 原始信号源完成,以获得所有曝光和最佳可能的高动态范围视频。
+ K5 K( H% W. u
1 P9 G# \- Y  w您可以与杜比视界进行比较。主要区别在于曝光,在工作室等级中,高光甚至没有正确地放置在 HDR 范围内,因此反射 / 镜面反射光和真实感并未完全达到效果。我们将所有 HDR 曝光作用于视频,使结果更加真实。“4 @, Z% ~' t" D  S

3 H2 t) W' r4 q# u( ~. |0 t' q以上为TEKNO3D官网解释
回复 支持 1 反对 0

使用道具 举报

shen_chu_feng 发表于 2019-8-28 14:37:08 | 显示全部楼层
下完后大概看了看,差异比较明显。
! x4 p; s9 T6 g- ]两者(MKV)纯视频文件相同数据项目上的区别:
! |  I9 }+ N& P! x( h
8 B0 e; x2 X3 d- e5 FVideo7 s4 j: h! _7 l9 L8 k$ L$ O% ]
ID                             : 1
/ U# r. J; a7 l% T3 CFormat                         : HEVC
, U# i7 Q) M' {$ R; }8 w- w! HFormat/Info                    : High Efficiency Video Coding
$ R5 b  p7 L3 @$ pFormat profile                 : Main 10@L5.1@High2 _4 k6 F7 A4 I- I7 p
HDR format                     : SMPTE ST 2086, HDR10 compatible
& t! `/ v6 X) u6 `' d, \+ k' i" ?Codec ID                       : V_MPEGH/ISO/HEVC
) d3 \8 }2 P, \9 g2 `, g: C* S4 iDuration                       : 3 h 1 min
/ d, @/ u6 r3 ?) d) c3 p- ^' \Bit rate                       : 36.0 Mb/s, `7 p/ S9 d( K
Width                          : 3 840 pixels
& O6 E9 V5 N: t6 T6 ~/ o' |0 @" zHeight                         : 2 160 pixels0 @% {2 y% M1 j! I5 r
Display aspect ratio           : 16:9
+ f* k- ^9 b$ G2 JFrame rate mode                : Constant
0 u- z% `  E% N" [7 \) ?2 eFrame rate                     : 23.976 (24000/1001) FPS
" ^4 S* O+ M" k% Y4 DColor space                    : YUV/ l9 ^- {. F  s& F* W) k. _3 `
Chroma subsampling             : 4:2:0 (Type 2)& C6 J. z8 z" |7 c0 ^! h
Bit depth                      : 10 bits( m# \; Z+ H1 b3 ~0 f, z
Bits/(Pixel*Frame)             : 0.181
: q% m) }0 j: ~* w  @9 p7 xStream size                    : 45.6 GiB (88%)
9 k$ C6 i( O% ^/ CWriting library                : ATEME Titan File 3.9.0 (4.9.0.0)        9 P( v: l$ Q$ J! V7 E* V
Language                       : English
9 Y8 I* y/ Q9 t, NDefault                        : Yes
) Q0 Y, Q  }' z( uForced                         : No7 {( N! O1 m% k/ _3 z% K- X( s* t
Color range                    : Limited
5 G7 c5 R0 q& CColor primaries                : BT.20205 J4 y# V8 k  f$ O- _
Transfer characteristics       : PQ
: n0 R9 I- p+ p$ `* y# A0 UMatrix coefficients            : BT.2020 non-constant( z) x" I% y  W
Mastering display color primar : Display P3
6 X6 W2 f7 \* Y! d9 TMastering display luminance    : min: 0.0050 cd/m2, max: 4000 cd/m2- F. o; Z% V" b7 k6 z
SEI_rbsp_stop_one_bit          : Missing
) \# Q4 p6 j, T: O; s6 [: Q
; L# C! K/ u% R8 W  l; ]
# t# R1 x% a7 n) {Video2 n& g1 w/ z) s; F; C# q7 J
ID                             : 1
* E" t7 ]: T' Q" dFormat                         : HEVC" }) t9 k: d6 k1 }/ C, P
Format/Info                    : High Efficiency Video Coding
8 B0 o/ ]! E4 [; z" Q) l0 b: ]Format profile                 : Main 10@L5.1@High+ D, |- {% Z, z. |3 g3 L% \
HDR format                     : SMPTE ST 2086, HDR10 compatible8 a, K. X) A4 }" j  @
Codec ID                       : V_MPEGH/ISO/HEVC
% g' }( S+ `9 K: e1 H# e! [Duration                       : 3 h 1 min
" n9 k9 @  S) ]Bit rate                       : 64.0 Mb/s
; s! i7 w" b/ k  W- A1 v, QWidth                          : 3 840 pixels2 U  W# S" W# c! R! T- K2 `, S% ~
Height                         : 2 160 pixels
/ l5 J4 n$ t' ?$ _, XDisplay aspect ratio           : 16:9- U! g" j1 M, n/ V; M5 S1 C4 y% C7 j
Frame rate mode                : Constant
7 E0 P3 D# ~* Q9 V5 |  AFrame rate                     : 23.976 (24000/1001) FPS
% d: P' `" z3 |) C# c- QStandard                       : PAL
2 I; r, P+ E9 Q) K/ O/ @Color space                    : YUV# f; B/ z8 v7 y) j% |
Chroma subsampling             : 4:2:0 (Type 2)2 f+ x' Z4 Q! \. k; o& Q
Bit depth                      : 10 bits
2 [1 x3 B9 s) K1 ^* B$ U: qBits/(Pixel*Frame)             : 0.322. S0 H' P) n$ u; J
Stream size                    : 81.0 GiB (92%)" B; \; I" a. C( C' h1 M. Z
Title                          : Avengers.Endgame.2019.INTERNAL.UHD.DYNAMIC.HDR-X..TrueHD.Atmos.7.1-TEKNO3D
" W- \/ N6 B! H$ e/ H3 OLanguage                       : English
$ X- n, p' A5 X1 }# T8 @Default                        : Yes
8 N" d- a0 `4 m6 f6 c2 U' ^Forced                         : No: ~1 ^) T( K& F: o  T* @
Color range                    : Limited& }5 d/ k( p( X7 s" w
Color primaries                : BT.2020; R4 z& h& {* s& t# h
Transfer characteristics       : PQ/ a7 W- Y! Q7 M( [3 \! |/ E, v
Matrix coefficients            : BT.2020 non-constant
7 o, ?: _' P6 V* Y# Q% d1 [/ WMastering display color primar : Display P3; ]5 |1 r7 n% g, ~+ F6 o) q$ R
Mastering display luminance    : min: 0.0050 cd/m2, max: 6000 cd/m2$ v; t* Z  U$ L0 U
Maximum Content Light Level    : 6000 cd/m2
+ ~5 R# n8 K; ~! {Maximum Frame-Average Light Le : 640 cd/m2 1.png ; [+ o1 m3 H# x: S/ Q
2.png
4 C2 @0 }+ n! K$ L: | 3.png . y+ V6 p3 }. b! J) O
; \7 R: q6 u! {
4 M3 F( m0 l+ h# w: `5 y, A# S3 R# I
( E. {/ b6 X' D8 O& N
贴下两者同一屏幕播放视觉上的区别(PotPlayer支持同一屏幕多视频同时播放)
3 C( y8 f. b4 P1 [% e5 ?* [6 ]; q3 E2 p
- y7 T9 S2 t/ u( d* j
回复 支持 1 反对 0

使用道具 举报

michaellv 发表于 2019-8-23 17:45:49 | 显示全部楼层
这东东其实就是网友用山寨软件DIY出来的,以前UHD破解前俄罗斯压制组也有过类似的乱搞!. p! d+ S$ a( }. @+ M
视频这东东不像是照片,PS一张大家都会搞,但一帧一帧的PS谁吃得消,肯定是用软件来转的,如果山寨软件真有这么好的效果,那么官方为啥不用呢?
回复 支持 1 反对 0

使用道具 举报

随便玩玩 发表于 2019-8-18 23:53:23 | 显示全部楼层
652070371 发表于 2019-8-18 23:00
( F0 X& h, k& m, y0 ?" R; M自己看评论,有人验证过,1080p原盘的

" Q: G3 u, ?5 T2 F4 S看评论?有人验证过了?他怎么验证的?你自己不会验证吗兄弟!要不要我跟你说说验证的方法?都是4K 原盘  版本不一样而已,德版、美版、俄版、还有台湾版、香港版!难道你喜欢的就是4K原盘、不喜欢的就不是? 不要听风就是雨,要学会自己辨别!
回复 支持 1 反对 0

使用道具 举报

COM赖恩 发表于 2019-8-18 12:09:53 | 显示全部楼层
我还是等加长版的,,,可是现在我都不知道啥时候能下载到??
回复 支持 1 反对 0

使用道具 举报

major613 发表于 6 天前 | 显示全部楼层
我是来学习的,长了不少知识,谢谢分享。
回复 支持 反对

使用道具 举报

yjpp 发表于 2020-7-29 09:06:45 Hao4K手机版 | 显示全部楼层
88G版本播放效果最好。
回复 支持 反对

使用道具 举报

heartzc 发表于 2020-7-27 00:21:19 Hao4K手机版 | 显示全部楼层
这个真不好讲,单从体积大小是看不出来的。
回复 支持 反对

使用道具 举报

heartzc 发表于 2020-7-25 00:21:35 Hao4K手机版 | 显示全部楼层
差别真的是太大了!
回复 支持 反对

使用道具 举报

Yyon 发表于 2020-7-4 08:31:47 Hao4K手机版 | 显示全部楼层
88G的画面要胜过60G的
回复 支持 反对

使用道具 举报

gcz6236068 发表于 2020-6-22 00:46:19 | 显示全部楼层
youximang 发表于 2019-8-18 13:00/ f1 I, R0 e, O- u8 r+ S
我只下载Remux版

9 P: I5 [0 ?4 W; h, {" J# X这个版本点亮不了杜比视界的0 M5 U4 q, F* p- [1 [* N& A/ f% C
回复 支持 反对

使用道具 举报

gcz6236068 发表于 2020-6-22 00:43:34 | 显示全部楼层
D之一族 发表于 2019-8-24 18:448 a0 b3 Q4 G. n. f# q* M- |
哥我按你的方法加了MAD渲染,效果跟原来一样,亮度也没变。其实只要像素着色下面三个勾上就跟MAD效果一样 ...

; Y* H( e  D3 W6 e上播放机吧,上了你就知道你之前都是瞎玩了
; L1 Z% i$ E# I  ~
回复 支持 反对

使用道具 举报

gcz6236068 发表于 2020-6-22 00:39:54 | 显示全部楼层
l1d2j9 发表于 2019-9-20 15:36
  b6 C4 j# u6 A% D, T0 P- ]+ T突然这么一说我就想起来了!好多电影看起来效果很好,毕竟4K嘛!可是为啥感觉好暗啊!就像晚上的场景一样无 ...
$ W) B* Z- H7 d6 b- O% @7 R
你需要蓝光播放器,另外电视开HDR了吗?还有很多片子必须点亮杜比视界效果就好了
# Z& D# ?8 ]- n+ e
回复 支持 反对

使用道具 举报

1479106151 发表于 2020-6-1 22:05:06 Hao4K手机版 | 显示全部楼层
88G的那个画质肯定好
回复 支持 反对

使用道具 举报

南风不知秋意 发表于 2020-5-25 17:31:01 Hao4K手机版 | 显示全部楼层
差异有点明显
回复 支持 反对

使用道具 举报

sqjszh 发表于 2020-5-25 17:11:28 Hao4K手机版 | 显示全部楼层
ljason 发表于 2019-9-7 21:32
$ m* D8 S5 N, b1 |) M$ C* 先进的色域映射:*) {( o2 x8 E7 J8 M: u
" T/ I( z; P* |" V
我们的转换是将原始 DCI 源颜色映射到 BT.2020 色 ...

* t3 o! m* f; _这解释太专业了!
回复 支持 反对

使用道具 举报

1589523354 发表于 2020-5-25 08:33:14 Hao4K手机版 | 显示全部楼层
基本上容量越大画质越好
回复 支持 反对

使用道具 举报

djdavidchen 发表于 2020-5-24 21:34:40 | 显示全部楼层
88G的有没有自带字幕的?下了的说一声
回复 支持 反对

使用道具 举报

hacken 发表于 2020-4-17 19:36:29 | 显示全部楼层
2766265955 发表于 2020-4-17 19:23# h. Q+ z( m( P2 V) P3 C
阿斯顿撒大所大所大所大所大所大所大所多
9 S0 B: _3 w  j; E- T) \) b  B$ ~
你有毛病啊刷个没完
回复 支持 反对

使用道具 举报

 楼主| dddi 发表于 2019-10-26 09:48:36 | 显示全部楼层
长了不少知识,谢谢分享。$ J0 k( }( q: e+ G( ?/ M5 B& t
回复 支持 反对

使用道具 举报

Joachim1792 发表于 2019-10-10 18:18:50 Hao4K手机版 | 显示全部楼层
88有大音轨是真的,不过大神还说了其他区别,学到了
回复 支持 反对

使用道具 举报

您需要登录后才可以回帖 登录 | 立即注册

本版积分规则

在线客服

在线客服

服务时间 9:00—18:00

返回顶部

关注微信公众号第一时间推送精彩

官方微信

手机访问

Hao4K影音

专注4k家庭影音,提供家庭影音社区,家庭影音器材库,影音问答平台,影音商城,服务千万家庭影音用户。

本站内容部分由用户自主分享和转载自互联网,转载目的在于传递更多信息,并不代表本网赞同其观点和对其真实性负责。

如有侵权、违反国家法律政策行为,请联系我们,我们会第一时间及时清除和处理!

举报反馈邮箱:admin@hao4k.cn

Copyright  2019-2020  Hao4K影音粤公网安备 44030302001429号    ( 粤ICP备18155646号-1 )|网站地图