专注4K家庭影音, 服务千万家庭影音发烧友!
手机版
访问手机版

在线
客服

Hao4K影音在线客服服务时间: 9:00-24:00

选择下列客服马上在线沟通:

快速
发帖

关注
微信

关注微信二维码
顶部

[播放相关] 复仇者联盟4 88g版本和60g的原盘有何不同

  [复制链接]
hacken 发表于 2019-8-18 11:09:35 | 显示全部楼层 |阅读模式 打印 上一主题 下一主题
 
本帖最后由 hacken 于 2019-8-18 11:11 编辑 # u# `/ I5 U: G7 o% A* H

3 P, m' V0 x5 T! H/ k新手第一次发帖。最近发现复联4又出来一个88g版本,英文标题直译好像是内部版本、动态hdr-x?下载下来发现码率比60g原盘高不少,madvr渲染颜色也比之前的更鲜艳,很好奇这种版本怎么来的,有没有收藏价值。请各位大佬解惑,附图。
2 v) Z, d" {( b 批注 2019-08-18 104726.png 4 @3 a0 n; q% q* T$ n9 L. `& N- n
60g.png 88g.png
, n4 S- C/ ^) f$ e/ y 60g_.png 88g..png
回复

使用道具 举报

 

精彩评论106

倒序浏览
饼饼 发表于 2019-8-19 17:48:16 | 显示全部楼层
 
88G版本是高动态HDR,亮度高达6000尼特的版本,目前应该是最好的版本,MKV格式,建议外挂个字幕。 收藏当然不错,可以看看钢铁战衣的蜘蛛侠脸上的灰。
  Z0 R$ `$ Y- f1 j2 R) C+ l( D# B% V" K+ n; U8 ?# K7 m% h9 s/ f
95G版本是4000尼特,网友们纷纷表示过曝了,没有价值
/ o7 F8 m6 d  j
+ e* v0 |' ~# g59-60G的原盘版本制作非常差倒是事实。
回复 支持 4 反对 0

使用道具 举报

 
short_hair 发表于 2019-9-19 01:11:14 来自手机 | 显示全部楼层
 
布吉岛咋啦
回复 支持 0 反对 1

使用道具 举报

 
ljason 发表于 2019-9-7 21:32:52 | 显示全部楼层
 
* 先进的色域映射:*
- P( @6 u: [1 r" U1 [" ?3 t" z0 G# s' a" t* Z0 z+ _( ~& L3 l
我们的转换是将原始 DCI 源颜色映射到 BT.2020 色彩范围。这样,您可以确保在 HDR 电视中观看原始颜色。. g# V1 \3 J- g& S$ U

9 G4 n* X+ a2 v* 先进的 Q HDR 分级:*2 r8 O: ?8 K% q

( N; i2 h* R/ y& ]# e  l! |7 h9 y全范围数字中间分级,具有更高的精度。
/ ]; o' H# I: b3 P& x. E  O! p0 U
+ L# X$ A4 _1 r5 V# d1 X”我们的 HDR 分级从 SDR 原始信号源完成,以获得所有曝光和最佳可能的高动态范围视频。
! m3 k* `0 [. f; Z- a- M. B% ~3 x8 p* g' H
您可以与杜比视界进行比较。主要区别在于曝光,在工作室等级中,高光甚至没有正确地放置在 HDR 范围内,因此反射 / 镜面反射光和真实感并未完全达到效果。我们将所有 HDR 曝光作用于视频,使结果更加真实。“
& }$ H: g. N; ]3 e7 U# I: l. B- J, T  F) V& [# ]3 d1 h
以上为TEKNO3D官网解释
回复 支持 1 反对 0

使用道具 举报

 
shen_chu_feng 发表于 2019-8-28 14:37:08 | 显示全部楼层
 
下完后大概看了看,差异比较明显。
9 D/ J* q! K0 X3 v0 `5 b8 N% f两者(MKV)纯视频文件相同数据项目上的区别:( k4 B2 x) O' N. o+ p+ H% s$ X* l- c6 R
! |+ R; _: Z! j, V$ r+ r1 o9 T
Video
+ Z  t0 X, N) @% X6 {8 i: S# RID                             : 1
1 M$ y, U, I! P" c# {# rFormat                         : HEVC  G0 N2 \+ |0 S/ Y) ^: M( S
Format/Info                    : High Efficiency Video Coding
; P# M) @) |- r. b" X1 |1 [Format profile                 : Main 10@L5.1@High9 G! r* d# [4 X* P9 X7 q1 l
HDR format                     : SMPTE ST 2086, HDR10 compatible# [0 b7 o  p5 A" i$ b
Codec ID                       : V_MPEGH/ISO/HEVC  u% ]7 G2 }) _! v% n
Duration                       : 3 h 1 min
) B% e+ ]* N2 f# e/ ?7 b) \% X( yBit rate                       : 36.0 Mb/s. |2 r6 j0 O7 f% g+ T/ T- i7 E6 h+ ^
Width                          : 3 840 pixels" s. h" a& v1 W5 j
Height                         : 2 160 pixels
0 j3 f1 B" d9 S. v" W, lDisplay aspect ratio           : 16:9
+ O$ _% Y  z7 z4 J0 a" J3 YFrame rate mode                : Constant( q/ ^/ y& p% ^/ r4 S6 S% h
Frame rate                     : 23.976 (24000/1001) FPS0 Y, ~, K7 G/ x+ F# C
Color space                    : YUV
; e+ F- J: n- O4 a1 zChroma subsampling             : 4:2:0 (Type 2)3 T; [$ {1 Q+ n. d
Bit depth                      : 10 bits
, J/ ~1 o5 ]# _& j- F1 a8 U8 dBits/(Pixel*Frame)             : 0.181
' n1 ~, l  I, s2 M* i$ FStream size                    : 45.6 GiB (88%)
* _' \& ~6 x- w! KWriting library                : ATEME Titan File 3.9.0 (4.9.0.0)        3 ~+ l9 l& F0 }+ I. O' {
Language                       : English
1 ~1 u6 ~; j2 SDefault                        : Yes/ @) r3 V- h, w% a1 p
Forced                         : No
7 ~# {, j  m1 A0 L0 XColor range                    : Limited
# d2 W/ k! x  `' ]Color primaries                : BT.2020
. C) S/ W% f$ ]) CTransfer characteristics       : PQ/ K( Q, |9 a- C, l- a+ U4 u" c
Matrix coefficients            : BT.2020 non-constant
$ I; s! |6 V: n" {5 z7 pMastering display color primar : Display P30 I4 k% d4 O  M( v6 E
Mastering display luminance    : min: 0.0050 cd/m2, max: 4000 cd/m2* W- ~  B2 s4 O% x2 T  q7 l
SEI_rbsp_stop_one_bit          : Missing
0 n3 j4 W& [3 A, o/ D3 i
  X. Y$ i! N/ G4 g2 _! W+ Z
" P  X# Y# j5 n+ u/ F* p* oVideo6 C% ]& a/ E4 y
ID                             : 1
. Q$ ?6 j1 r, @9 QFormat                         : HEVC& H- o% k! w' E  ^# }9 r- M" W
Format/Info                    : High Efficiency Video Coding
0 P# s  H9 b; k$ PFormat profile                 : Main 10@L5.1@High
& Q' }8 ?" h, _6 [0 x2 G4 B" \0 {HDR format                     : SMPTE ST 2086, HDR10 compatible7 o4 T" u# ~4 T! ?: h" g4 {
Codec ID                       : V_MPEGH/ISO/HEVC
2 C! w& |& E2 J9 g! _Duration                       : 3 h 1 min# \% F+ u- I, f; `' M6 l: |# K5 p! c
Bit rate                       : 64.0 Mb/s
  L. o( a! u2 I5 H5 OWidth                          : 3 840 pixels
; C$ Q* b+ W& \Height                         : 2 160 pixels6 Y  E) E+ {0 F1 a
Display aspect ratio           : 16:9$ s- e1 e* w/ G0 Y: M6 V
Frame rate mode                : Constant
8 `$ m: g1 g% m  @" u8 P4 O. yFrame rate                     : 23.976 (24000/1001) FPS
# Y. G1 B9 j% v0 |Standard                       : PAL& f, v  R: [& D% P# ?5 ]
Color space                    : YUV- Q( n* X  e& z
Chroma subsampling             : 4:2:0 (Type 2)7 d4 v7 `- Z$ d( v
Bit depth                      : 10 bits
, M+ O, b, h1 A8 c0 i# L: i9 kBits/(Pixel*Frame)             : 0.322
% ]( D; ^7 Q2 ZStream size                    : 81.0 GiB (92%)1 Y; M" s# k, E4 [5 I7 z6 v
Title                          : Avengers.Endgame.2019.INTERNAL.UHD.DYNAMIC.HDR-X..TrueHD.Atmos.7.1-TEKNO3D5 e) ^6 G7 G5 U8 s! O$ o0 H
Language                       : English
# i- i. J6 _3 g7 v2 Y$ oDefault                        : Yes- E7 N3 V8 f* f% b" G+ e4 Q
Forced                         : No, W, f* @. \+ _* z: f2 b6 f6 \
Color range                    : Limited
/ a8 q% M! _0 s$ i$ f+ x  ?" K* NColor primaries                : BT.2020
3 C: K" a+ k6 }: L- aTransfer characteristics       : PQ5 M: T% t1 h3 D0 c: c
Matrix coefficients            : BT.2020 non-constant, W- `. \  h( w: f6 O
Mastering display color primar : Display P3
" |3 B. [) S6 F* Z8 W: v! CMastering display luminance    : min: 0.0050 cd/m2, max: 6000 cd/m2$ W# \  i6 b  e* J% j
Maximum Content Light Level    : 6000 cd/m2
$ @5 Y7 q& Y6 l% S, {; _Maximum Frame-Average Light Le : 640 cd/m2 1.png 9 V, u7 g' F' h
2.png & ^0 D7 u& g0 {
3.png
( Q: J# N. T" u. C/ n
4 O( n' d1 k0 i
6 r+ @8 z' w$ U
0 x) u+ X/ x0 B+ E. b5 S% {' e4 L贴下两者同一屏幕播放视觉上的区别(PotPlayer支持同一屏幕多视频同时播放)6 ~2 j5 D0 `* @% ~4 ~+ c
# `4 b2 j3 w7 n, G0 x
回复 支持 1 反对 0

使用道具 举报

 
michaellv 发表于 2019-8-23 17:45:49 | 显示全部楼层
 
这东东其实就是网友用山寨软件DIY出来的,以前UHD破解前俄罗斯压制组也有过类似的乱搞!
) `/ z  s. W+ ]6 R4 H4 a" s$ T  J视频这东东不像是照片,PS一张大家都会搞,但一帧一帧的PS谁吃得消,肯定是用软件来转的,如果山寨软件真有这么好的效果,那么官方为啥不用呢?
回复 支持 1 反对 0

使用道具 举报

 
随便玩玩 发表于 2019-8-18 23:53:23 | 显示全部楼层
 
652070371 发表于 2019-8-18 23:00
* q7 m/ w  T% W; |4 ?! ?  @自己看评论,有人验证过,1080p原盘的
' S2 h+ e6 h  l5 @5 O* P8 G4 W
看评论?有人验证过了?他怎么验证的?你自己不会验证吗兄弟!要不要我跟你说说验证的方法?都是4K 原盘  版本不一样而已,德版、美版、俄版、还有台湾版、香港版!难道你喜欢的就是4K原盘、不喜欢的就不是? 不要听风就是雨,要学会自己辨别!
回复 支持 1 反对 0

使用道具 举报

 
COM赖恩 发表于 2019-8-18 12:09:53 | 显示全部楼层
 
我还是等加长版的,,,可是现在我都不知道啥时候能下载到??
回复 支持 1 反对 0

使用道具 举报

 
dddi 发表于 2019-10-26 09:48:36 | 显示全部楼层
 
长了不少知识,谢谢分享。) [! T$ v! Y$ h) f' C% J; c6 j1 D
回复 支持 反对

使用道具 举报

 
Joachim1792 发表于 2019-10-10 18:18:50 来自手机 | 显示全部楼层
 
88有大音轨是真的,不过大神还说了其他区别,学到了
回复 支持 反对

使用道具 举报

 
erisa14 发表于 2019-10-10 00:11:24 | 显示全部楼层
 
看着不错.哪里有下?
回复 支持 反对

使用道具 举报

 
xlzzhx 发表于 2019-10-9 21:49:41 | 显示全部楼层
 
饼饼 发表于 2019年10月9日 21:07
5 h/ T, i& T" l6 k8 [! m; L字幕文件改成影片文件同名即可,放在同一个目录下,POTpalyer或Mpc播放器都会自动加载,电视机播放的话, ...

$ @4 k4 M" k& ?: _* C7 K1 }7 Q8 ^谢谢啦,再研究一下
回复 支持 反对

使用道具 举报

 
饼饼 发表于 2019-10-9 21:07:27 | 显示全部楼层
 
xlzzhx 发表于 2019年10月8日 23:01
3 F9 M( T9 G3 t. I9 _小白想知道,怎么挂字幕

( k/ |& {( h8 i% V: H! d字幕文件改成影片文件同名即可,放在同一个目录下,POTpalyer或Mpc播放器都会自动加载,电视机播放的话,下载SRT格式的即可
回复 支持 反对

使用道具 举报

 
xlzzhx 发表于 2019-10-8 23:01:40 | 显示全部楼层
 
饼饼 发表于 2019年8月19日 17:48
5 ^  q0 R! {0 G, ^88G版本是高动态HDR,亮度高达6000尼特的版本,目前应该是最好的版本,MKV格式,建议外挂个字幕。 收藏当然 ...
" ~$ O: l; \( T: W: p" D
小白想知道,怎么挂字幕
回复 支持 反对

使用道具 举报

 
pcsms_BowSPUO5 发表于 2019-9-21 17:35:26 | 显示全部楼层
 
xiang77 发表于 2019年8月29日 02:16
" U. B$ c7 J8 j這個就是別人加了兩條意大利語音軌進去弄得,所以別下,浪費時間

( Z, ^+ Q) s7 {/ S3 k3 [幸好没下,不然浪费时间
回复 支持 反对

使用道具 举报

 
l1d2j9 发表于 2019-9-20 15:36:13 | 显示全部楼层
 
突然这么一说我就想起来了!好多电影看起来效果很好,毕竟4K嘛!可是为啥感觉好暗啊!就像晚上的场景一样无论是82G的变形金刚5还是其他20G左右的都是这样!很困惑啊
回复 支持 反对

使用道具 举报

 
1012401239 发表于 2019-9-8 00:47:44 来自手机 | 显示全部楼层
 
88的应该有更多东西
回复 支持 反对

使用道具 举报

 
hacken 发表于 2019-9-7 22:18:48 | 显示全部楼层
 
ljason 发表于 2019年9月7日 21:32  n3 G+ \) k( g( L5 H& |
* 先进的色域映射:*
6 r7 x( B2 e0 P! \- G% m, l
% X. P* [# s! T4 x; Z$ b. `3 A, o我们的转换是将原始 DCI 源颜色映射到 BT.2020 色 ...
( A' G/ l+ O" c% P4 c% @1 ?# I
多谢大神解惑
回复 支持 反对

使用道具 举报

 
 楼主| yanglei 发表于 2019-9-6 00:54:19 来自手机 | 显示全部楼层
 
谢谢分享!
回复 支持 反对

使用道具 举报

 
ilovekkkk 发表于 2019-9-5 10:23:50 | 显示全部楼层
 
多谢指点,受教了
回复 支持 反对

使用道具 举报

 
hacken 发表于 2019-9-4 15:34:07 | 显示全部楼层
 
linlin7715 发表于 2019年9月4日 14:40
1 M/ x0 f; M" q" [0 A比较过,明显88G的画面要胜过60G的一筹

/ U3 E; J5 r$ `( \. ]* h3 Y嗯,看起来确实不错
回复 支持 反对

使用道具 举报

 
 楼主| linlin7715 发表于 2019-9-4 14:40:59 | 显示全部楼层
 
比较过,明显88G的画面要胜过60G的一筹
回复 支持 反对

使用道具 举报

 
hacken 发表于 2019-9-4 13:27:51 | 显示全部楼层
 
wudihaha123 发表于 2019年9月4日 10:00& m1 C( c& O, q, H( N9 c' W' B
两手准备吧,60G是官版,有收藏价值,88G是比较理想的观看版本,号称官方流出但是绝没那么容易就流出,80% ...

$ B0 k  }; D5 o+ Q6 a内存不足,把88g去了
回复 支持 反对

使用道具 举报

 
您需要登录后才可以回帖 登录 | 立即注册

本版积分规则


2关注

2粉丝

1帖子

排行榜
作者专栏

关注微信公众号第一时间推送精彩

官方微信

手机访问

Hao4K影音

专注4k庭影音,提供家庭影音社区、家庭影音器材库、影音问答平台、影音商城服务家庭影音用户。

本站内容部分由用户自主分享和转载自互联网,转载目的在于传递更多信息,并不代表本网赞同其观点和对其真实性负责。

如有侵权、违反国家法律政策行为,请联系我们,我们会第一时间及时清除和处理!

举报反馈邮箱:admin@hao4k.cn

Copyright   ©2016-2019  Hao4K影音Powered by©Hao4K 粤公网安备 44030302001429号   粤ICP备18155646号-1 |网站地图