专注4K家庭影音, 服务千万家庭影音发烧友!

在线
客服

QQ咨询服务时间: 9:00-21:00

选择下列客服马上在线沟通:

快速
发帖

暂无
7*24小时客服服务热线

关注
微信

顶部

[播放相关] 复仇者联盟4 88g版本和60g的原盘有何不同

 
ilovekkkk 发表于 2019-9-5 10:23:50 | 显示全部楼层
多谢指点,受教了
回复 支持 反对

使用道具 举报

 
hacken 发表于 2019-9-4 15:34:07 | 显示全部楼层
linlin7715 发表于 2019年9月4日 14:40
( U) g, {* D! x( P' Y/ r% U: c6 a比较过,明显88G的画面要胜过60G的一筹

8 F9 u8 G! g( @& [' n4 l嗯,看起来确实不错
回复 支持 反对

使用道具 举报

 
 楼主| linlin7715 发表于 2019-9-4 14:40:59 | 显示全部楼层
比较过,明显88G的画面要胜过60G的一筹
回复 支持 反对

使用道具 举报

 
hacken 发表于 2019-9-4 13:27:51 | 显示全部楼层
wudihaha123 发表于 2019年9月4日 10:005 V: K+ ]& U) Z
两手准备吧,60G是官版,有收藏价值,88G是比较理想的观看版本,号称官方流出但是绝没那么容易就流出,80% ...

1 w2 ?9 Y3 l5 U! |' }4 K4 q内存不足,把88g去了
回复 支持 反对

使用道具 举报

 
 楼主| wudihaha123 发表于 2019-9-4 10:00:52 | 显示全部楼层
两手准备吧,60G是官版,有收藏价值,88G是比较理想的观看版本,号称官方流出但是绝没那么容易就流出,80%是大神重压的,至于IMAX的问题只有当时花大价钱去影院看,如果没去就再也看不到了。
回复 支持 反对

使用道具 举报

 
hacken 发表于 2019-9-3 14:22:21 | 显示全部楼层
多谢指点,受教了
回复 支持 反对

使用道具 举报

 
 楼主| frankeason 发表于 2019-8-29 20:09:36 | 显示全部楼层
为什么我完全下载不动啊
回复 支持 反对

使用道具 举报

 
rainman1989 发表于 2019-8-29 11:33:39 来自手机 | 显示全部楼层
senka4k 发表于 2019-8-22 21:117 B3 ]" z1 |# t  I* f, r* F" C
因為喜歡marvel,所以av4買了原盤,到手看看有何不一樣

9 J3 c: ~% w6 r* z有不一样吗?
回复 支持 反对

使用道具 举报

 
msn16 发表于 2019-8-29 09:51:21 | 显示全部楼层
% Q8 \# f5 V: F$ \0 T
学习了 说的不错
回复 支持 反对

使用道具 举报

 
msn16 发表于 2019-8-29 09:43:00 | 显示全部楼层
受教了,谢谢分享
回复 支持 反对

使用道具 举报

 
xiang77 发表于 2019-8-29 02:16:30 | 显示全部楼层
四点钟方向 发表于 2019-8-18 15:29
3 ~  _% w1 L  |) O+ b" v你这样说的话版本就多了,估计妇联4 大大小小上百个版本是有的! 这个站的这个88.02G的,别人下载了DIY随 ...
/ k7 N# O7 T( o/ F' u% x
這個就是別人加了兩條意大利語音軌進去弄得,所以別下,浪費時間
回复 支持 反对

使用道具 举报

 
shen_chu_feng 发表于 2019-8-28 14:37:08 | 显示全部楼层
下完后大概看了看,差异比较明显。
" K! i* R, |/ M$ X- C1 u: v! }7 z1 E& i两者(MKV)纯视频文件相同数据项目上的区别:
5 ^4 T% D# h4 p+ ?9 y: H
3 W% M5 L4 M+ j, \Video% V. Y, q0 K. I, J
ID                             : 1
# D6 c) V' }3 O: i2 W7 O  w2 z( f! \Format                         : HEVC: r8 Z. S6 L- m9 o/ f
Format/Info                    : High Efficiency Video Coding, C, b8 Q9 |8 \0 m" m7 u
Format profile                 : Main 10@L5.1@High
+ Q* e0 f; s% n  d/ D( P3 N7 tHDR format                     : SMPTE ST 2086, HDR10 compatible# ?  a0 z: u6 h5 U8 t0 q
Codec ID                       : V_MPEGH/ISO/HEVC
, o9 z# H1 _0 s4 D( ODuration                       : 3 h 1 min
( V8 M& n9 Y. `4 K4 bBit rate                       : 36.0 Mb/s, T/ _5 U( h/ _1 V# ?- }# v
Width                          : 3 840 pixels
& }# p  Y2 }1 z8 R" dHeight                         : 2 160 pixels
3 c% H& G) [) t7 C6 MDisplay aspect ratio           : 16:9
  A) O: @0 x6 ^$ j  ?Frame rate mode                : Constant
. z4 M: y8 e, e* l+ S9 z7 ^1 vFrame rate                     : 23.976 (24000/1001) FPS3 ~0 \9 {/ u5 q: C
Color space                    : YUV
, o2 @2 \. W8 j% @8 XChroma subsampling             : 4:2:0 (Type 2)( K' c; c8 x. n7 Q0 Y& `
Bit depth                      : 10 bits5 y! q7 @& f, w$ M3 l
Bits/(Pixel*Frame)             : 0.181
  {6 ^5 H5 P$ EStream size                    : 45.6 GiB (88%)& H" n* E. r& l
Writing library                : ATEME Titan File 3.9.0 (4.9.0.0)        ! X+ l$ s; V3 B' G& _
Language                       : English
' \5 ?# t( z( r/ M2 IDefault                        : Yes2 P. M* U+ W& Y  v3 {
Forced                         : No9 H* _" i2 h; q7 x) D& s9 x3 r
Color range                    : Limited
- w- k% t1 K6 n! Y9 fColor primaries                : BT.2020- U! l5 ^6 \# J, j6 T) M
Transfer characteristics       : PQ
$ |7 _+ k, E, CMatrix coefficients            : BT.2020 non-constant
* y; L; J8 B' n" P( X8 qMastering display color primar : Display P3" x+ @9 ^) ^, _
Mastering display luminance    : min: 0.0050 cd/m2, max: 4000 cd/m25 e. s# Z6 F' F! {4 |" K8 d
SEI_rbsp_stop_one_bit          : Missing2 `# _' V) W. D
7 W5 h3 ]% S% v5 q4 j: E
/ g' x! s& u7 \4 C8 d
Video
* k) n2 ~! o4 {; |: VID                             : 1+ R1 H* D: \. d- \6 L* c8 y
Format                         : HEVC
4 i& r1 r. c$ _Format/Info                    : High Efficiency Video Coding. A7 u' ?6 i: N' j5 B. R, T1 H& Y
Format profile                 : Main 10@L5.1@High
& Y5 J4 l, ?$ G1 G% qHDR format                     : SMPTE ST 2086, HDR10 compatible$ q6 w4 R! M3 S- A) a* l% R
Codec ID                       : V_MPEGH/ISO/HEVC
6 o) |1 z- x6 q  A! pDuration                       : 3 h 1 min
* @- x9 t- b6 y% }2 s- ~! R  uBit rate                       : 64.0 Mb/s
6 v( P( \: Y; CWidth                          : 3 840 pixels
0 W2 T9 G/ D# Q1 V+ JHeight                         : 2 160 pixels
7 v4 y5 d+ v# V: N8 @Display aspect ratio           : 16:9" j% x7 O# C# p4 G+ R! G
Frame rate mode                : Constant
8 m6 q, O/ W& p# |Frame rate                     : 23.976 (24000/1001) FPS& r" u5 P/ D( x* G2 X
Standard                       : PAL9 O) E3 D0 h! P! u) o. V8 O
Color space                    : YUV
/ N2 L" f0 T: Y* I# s1 s5 vChroma subsampling             : 4:2:0 (Type 2)
" [2 @. ~% o# ~- E" Q0 j% `. YBit depth                      : 10 bits
% R1 a2 ~" u, F! k( l( P' P% HBits/(Pixel*Frame)             : 0.322; y+ P, Y+ }' n) d$ C! k
Stream size                    : 81.0 GiB (92%)
6 d' A- \* D0 @( F0 }Title                          : Avengers.Endgame.2019.INTERNAL.UHD.DYNAMIC.HDR-X..TrueHD.Atmos.7.1-TEKNO3D* x0 o% b4 E. D9 i
Language                       : English
; E! z1 t& `( qDefault                        : Yes5 g. D3 [% _' e3 b
Forced                         : No" b4 e# ^1 ~4 a1 C8 A; S
Color range                    : Limited
( ?. R% U, a3 w. c( Q! l# Q2 OColor primaries                : BT.2020
9 k: ]5 f( g) ^' g6 j& fTransfer characteristics       : PQ! h2 ?. G3 D/ N' k: O
Matrix coefficients            : BT.2020 non-constant
' `& c7 K' ?  j6 [4 f* U: }! TMastering display color primar : Display P3
% L' T) `! s, v- V& w: @Mastering display luminance    : min: 0.0050 cd/m2, max: 6000 cd/m2
' ]6 ?' E8 r, J. W3 I! Z, zMaximum Content Light Level    : 6000 cd/m2
! H( z! X, W% o$ h& @& vMaximum Frame-Average Light Le : 640 cd/m2 1.png
- u) K) {- [" i3 v$ g6 u+ K 2.png
/ \+ y) o& z1 p  N: q 3.png 2 Q* F: l* K3 \# r/ v3 r6 S
5 Y8 w: o) J/ U# g+ u/ h5 J' T

- Y5 P4 s5 {. [0 N' `
  v* Z6 l1 V9 h4 |4 `7 c贴下两者同一屏幕播放视觉上的区别(PotPlayer支持同一屏幕多视频同时播放)) |) }2 D1 {) f; h2 F

  X( P/ q5 W0 C6 o. [; d7 D
回复 支持 1 反对 0

使用道具 举报

 
xiang77 发表于 2019-8-27 12:34:32 | 显示全部楼层
本帖最后由 xiang77 于 2019-8-27 12:42 编辑 ' U- B1 F) p; ^7 h3 e7 ^7 O
liwil 发表于 2019-8-18 14:08% P) u* j: b7 O% K; T( Y
還有88.71GB版本
( B; g0 D( c5 E7 J3 ~* J
4 v4 j/ [6 _4 A* y/ a! a" \5 c6 B1 UAvengers.Endgame.2019.INTERNAL.UHD.DYNAMIC.HDR-X..TrueHD.Atmos.7.1-Ar ...
; x/ J0 t5 V8 \6 A
这两个一样的,tenko3d是有专门PT站的,应该是先有的。88.71的发布者什么army90应该是在它基础上加了他自己国家的语言或字幕才变大了一点,没下这个,凭经验判断的。这两个我都没见到NFO文件。两个都下,太费时了。所以说发布资源时做一个NFO文件很有用。
回复 支持 反对

使用道具 举报

 
 
饼饼 发表于 2019-8-26 19:05:59 | 显示全部楼层
D之一族 发表于 2019-8-24 18:14
* O* }8 B- E. `! |+ Y非常感谢指导!还有一事,关于KODI投影问题,没有POTPLAYER这些功能,亮度都不能调节,是不是就没有办法 ...
9 x# t, @% e/ y- S6 I8 M% k9 U
KODI我已经很多年没碰过了 不太了解
回复 支持 反对

使用道具 举报

 
a1990330 发表于 2019-8-25 10:12:29 | 显示全部楼层
liwil 发表于 2019-8-18 14:08
) F% K1 _" J! I. v還有88.71GB版本
+ ?, }$ S8 p3 l, h5 a$ n' Q. i
. ?/ S) \* o( F" L+ \5 g- XAvengers.Endgame.2019.INTERNAL.UHD.DYNAMIC.HDR-X..TrueHD.Atmos.7.1-Ar ...
% n3 q% d9 b, d4 G( Y' A% L9 P
好混亂喔. C, M) ^" ]- ~% d' Y- V
我只抓hao版本的就行了....
回复 支持 反对

使用道具 举报

 
D之一族 发表于 2019-8-24 18:44:41 | 显示全部楼层
饼饼 发表于 2019-8-23 22:46, f% a, N+ l" ]8 t
POT你百度直接搜索madVR的使用方法  看完你就知道如何操作了。/ s. v3 F5 t$ e" N
hao4k也有相关的教学贴你搜索一下
# M6 E3 H9 K. p3 {只用P ...
, R) w7 _2 j* L1 [& u+ Q
哥我按你的方法加了MAD渲染,效果跟原来一样,亮度也没变。其实只要像素着色下面三个勾上就跟MAD效果一样了。
回复 支持 反对

使用道具 举报

 
D之一族 发表于 2019-8-24 18:14:42 | 显示全部楼层
饼饼 发表于 2019-8-23 22:46
$ J# l' K: [$ J8 ?0 UPOT你百度直接搜索madVR的使用方法  看完你就知道如何操作了。
' _+ }$ r; c1 e( b4 dhao4k也有相关的教学贴你搜索一下
4 {$ t( J3 @* y. J  Q4 O: T0 _只用P ...

1 t4 }9 C! n: f  ?; X6 S非常感谢指导!还有一事,关于KODI投影问题,没有POTPLAYER这些功能,亮度都不能调节,是不是就没有办法了。因为想用投影仪看所以才下的4K原盘,只能看这种偏暗的效果的话就没了意义。。
回复 支持 反对

使用道具 举报

 
您需要登录后才可以回帖 登录 | 立即注册

本版积分规则


2关注

8粉丝

2帖子

排行榜
社区广告

关注微信公众号第一时间推送精彩

官方微信

手机访问

Hao4K影音

专注4k家庭影音,提供家庭影音社区,家庭影音器材库,影音问答平台,影音商城,服务千万家庭影音用户。

本站内容部分由用户自主分享和转载自互联网,转载目的在于传递更多信息,并不代表本网赞同其观点和对其真实性负责。

如有侵权、违反国家法律政策行为,请联系我们,我们会第一时间及时清除和处理!

举报反馈邮箱:admin@hao4k.cn

Copyright   ©2019-2020  Hao4K影音粤公网安备 44030302001429号     ( 粤ICP备18155646号-1 )|网站地图