专注4K家庭影音, 服务千万家庭影音发烧友!
手机版
访问手机版

在线
客服

Hao4K影音在线客服服务时间: 9:00-24:00

选择下列客服马上在线沟通:

快速
发帖

客服
热线

暂无
7*24小时客服服务热线

关注
微信

关注微信二维码
顶部

[播放相关] 复仇者联盟4 88g版本和60g的原盘有何不同

  [复制链接]
hacken 发表于 2019年9月3日 14:22:21 | 显示全部楼层
 
多谢指点,受教了
回复 支持 反对

使用道具 举报

 
 楼主| frankeason 发表于 2019年8月29日 20:09:36 | 显示全部楼层
 
为什么我完全下载不动啊
回复 支持 反对

使用道具 举报

 
rainman1989 发表于 2019年8月29日 11:33:39 来自 移动版  | 显示全部楼层
 
senka4k 发表于 2019-8-22 21:11
: E/ c7 [2 l. l. o( v- Z因為喜歡marvel,所以av4買了原盤,到手看看有何不一樣

" w: Y$ x! B& A& }有不一样吗?
回复 支持 反对

使用道具 举报

 
msn16 发表于 2019年8月29日 09:51:21 | 显示全部楼层
 
2 E2 z$ f0 M+ }7 {3 _9 {
学习了 说的不错
回复 支持 反对

使用道具 举报

 
msn16 发表于 2019年8月29日 09:43:00 | 显示全部楼层
 
受教了,谢谢分享
回复 支持 反对

使用道具 举报

 
xiang77 发表于 2019年8月29日 02:16:30 | 显示全部楼层
 
四点钟方向 发表于 2019-8-18 15:29+ a/ K+ K. {2 s" h5 N& P
你这样说的话版本就多了,估计妇联4 大大小小上百个版本是有的! 这个站的这个88.02G的,别人下载了DIY随 ...
1 b  \  Z0 `3 K9 k- z2 r8 m2 z6 _
這個就是別人加了兩條意大利語音軌進去弄得,所以別下,浪費時間
回复 支持 反对

使用道具 举报

 
shen_chu_feng 发表于 2019年8月28日 14:37:08 | 显示全部楼层
 
下完后大概看了看,差异比较明显。
2 Q( v0 h: k* S5 }两者(MKV)纯视频文件相同数据项目上的区别:
) |, d( ~" v7 f; D
; h' j. O- U' H& R% g4 ^% \Video& r. @- s' x& v. ^  A
ID                             : 1
, q1 p. f6 M4 t# j: e4 z6 R) `+ BFormat                         : HEVC5 g5 P; h1 t( c0 P0 v# u% b% V1 D
Format/Info                    : High Efficiency Video Coding3 K$ C- |) S! p
Format profile                 : Main 10@L5.1@High
3 M8 A% O) H% w' o2 c8 }HDR format                     : SMPTE ST 2086, HDR10 compatible% W, k* O& P9 z' P  Z
Codec ID                       : V_MPEGH/ISO/HEVC5 Y1 ^; D2 O5 i. A* c2 P  v* C
Duration                       : 3 h 1 min- o" c8 [5 E; P0 M. \; V, U
Bit rate                       : 36.0 Mb/s
8 _' \3 ]2 B# ~& }Width                          : 3 840 pixels' g9 d3 i: |! h) w" g
Height                         : 2 160 pixels
' u/ i  P) X# @# A# X! O: MDisplay aspect ratio           : 16:9# n# `! h0 R$ v
Frame rate mode                : Constant
- r; p! \5 L) c, |Frame rate                     : 23.976 (24000/1001) FPS# h: X. ]- ?# t6 \4 @7 V5 W
Color space                    : YUV* e# Y; A* d, ?
Chroma subsampling             : 4:2:0 (Type 2)9 A9 V) q# B8 N& E3 z
Bit depth                      : 10 bits
! Y; f3 b+ U1 Q/ z: Z* X, TBits/(Pixel*Frame)             : 0.181
# l8 o/ X% H5 iStream size                    : 45.6 GiB (88%)5 s7 R  d- a8 X) I5 E
Writing library                : ATEME Titan File 3.9.0 (4.9.0.0)        
" @% ]7 u' p8 d' V5 o/ O* fLanguage                       : English9 \2 b& P3 y4 W* u
Default                        : Yes- ]' i$ J3 v7 `
Forced                         : No
, r! E. A: v2 h" wColor range                    : Limited
! M( d: [4 H1 w; A- e2 t7 {  r& ^) GColor primaries                : BT.2020
) q$ S9 |0 f8 f/ gTransfer characteristics       : PQ/ j! N. |9 p: Y8 u7 h' U
Matrix coefficients            : BT.2020 non-constant
5 v* u* ^4 _# F2 w! @# a3 ]Mastering display color primar : Display P35 ^. [+ L/ k& S* C7 I# ]% g8 I
Mastering display luminance    : min: 0.0050 cd/m2, max: 4000 cd/m2
3 ^8 G: _- r* ?% P4 R8 D, i5 q$ aSEI_rbsp_stop_one_bit          : Missing
, }+ w" W5 T+ }* G0 j, v& S; }+ j$ d
3 ^: \6 `& v8 {/ C$ D5 \
Video
8 {. q, D4 N- ]ID                             : 1
# i) n8 k* {3 A5 M2 nFormat                         : HEVC
' v9 {, E# C' `2 b: y6 ~Format/Info                    : High Efficiency Video Coding; X5 X# I4 G0 a: n; V
Format profile                 : Main 10@L5.1@High
5 V& u. R( L3 q( j) L: ?HDR format                     : SMPTE ST 2086, HDR10 compatible
. x1 _& }% Q% E7 s' P% QCodec ID                       : V_MPEGH/ISO/HEVC
6 g* Y0 U5 K+ ]' A  qDuration                       : 3 h 1 min+ a" V  V: I, l0 w1 ^2 L
Bit rate                       : 64.0 Mb/s
+ R4 x+ S  t; V% E+ q2 DWidth                          : 3 840 pixels; k1 |) h& Z# t
Height                         : 2 160 pixels
% ?; F- v! O5 I2 _/ ]. L' p6 pDisplay aspect ratio           : 16:9$ ], t4 {% ^  x2 f3 ~, j2 y, }+ S
Frame rate mode                : Constant
, @& m6 ?5 @7 s0 Q* n% TFrame rate                     : 23.976 (24000/1001) FPS& B1 w: j! @$ h, Q! q6 E8 f& t
Standard                       : PAL5 O! ]/ M3 u, _% M" J! A
Color space                    : YUV
; A* P- I/ |' ~" ]) G. C9 i0 E# I$ @Chroma subsampling             : 4:2:0 (Type 2)$ n) o+ k7 e; h3 N
Bit depth                      : 10 bits$ s$ h+ |3 m9 q; h/ R
Bits/(Pixel*Frame)             : 0.322- T% s$ J* J. }  i/ @2 C
Stream size                    : 81.0 GiB (92%)
+ o% K& a' ?4 T+ T! ^2 XTitle                          : Avengers.Endgame.2019.INTERNAL.UHD.DYNAMIC.HDR-X..TrueHD.Atmos.7.1-TEKNO3D( ?) k: t, O7 H- S7 n7 b
Language                       : English; e0 S7 w6 q+ o
Default                        : Yes
0 _* \8 @1 e9 jForced                         : No' z& Z0 N6 M0 Y- a( N
Color range                    : Limited
  i6 V3 h. G* GColor primaries                : BT.2020' l( r( n9 ^) ]7 L: r. z
Transfer characteristics       : PQ
4 n* y( C4 u8 ]# O% }Matrix coefficients            : BT.2020 non-constant) n7 D( R2 ^# h
Mastering display color primar : Display P3: N) q; x/ l. H/ G/ O, {
Mastering display luminance    : min: 0.0050 cd/m2, max: 6000 cd/m2+ t6 G7 M( x' m* \* M6 E$ ]( m
Maximum Content Light Level    : 6000 cd/m2
* X/ q& \) _. J, `$ VMaximum Frame-Average Light Le : 640 cd/m2 1.png
8 |3 x! O% F/ J 2.png ! v2 i1 e' o" t# M8 W
3.png
+ B3 o7 h' p2 j6 A8 X( {
5 i. H% \* n& @* x7 Y
1 k8 M% d) c3 t% J
8 F* R9 ]1 x) J( M9 z贴下两者同一屏幕播放视觉上的区别(PotPlayer支持同一屏幕多视频同时播放)
. k- U& ]! m; O* F6 @  v1 n/ U
9 Y1 I. n1 ^! R; |
回复 支持 1 反对 0

使用道具 举报

 
xiang77 发表于 2019年8月27日 12:34:32 | 显示全部楼层
 
本帖最后由 xiang77 于 2019-8-27 12:42 编辑 8 `9 u7 u5 m5 y* h
liwil 发表于 2019-8-18 14:08% j- p" v; C* a
還有88.71GB版本
3 a9 {2 ~3 K5 K1 n8 H' b1 r. I8 b5 y5 R6 v9 u* F) x* L; C  W+ }
Avengers.Endgame.2019.INTERNAL.UHD.DYNAMIC.HDR-X..TrueHD.Atmos.7.1-Ar ...

! U0 A2 u! |" E$ H' A6 w这两个一样的,tenko3d是有专门PT站的,应该是先有的。88.71的发布者什么army90应该是在它基础上加了他自己国家的语言或字幕才变大了一点,没下这个,凭经验判断的。这两个我都没见到NFO文件。两个都下,太费时了。所以说发布资源时做一个NFO文件很有用。
回复 支持 反对

使用道具 举报

 
lvdng 发表于 2019年8月26日 23:02:45 | 显示全部楼层
 
感觉差别真的很大
回复 支持 反对

使用道具 举报

 
饼饼 发表于 2019年8月26日 19:05:59 | 显示全部楼层
 
D之一族 发表于 2019-8-24 18:14; Q, F; l& m( K$ S4 A7 x
非常感谢指导!还有一事,关于KODI投影问题,没有POTPLAYER这些功能,亮度都不能调节,是不是就没有办法 ...

& N" R; B! N) DKODI我已经很多年没碰过了 不太了解
回复 支持 反对

使用道具 举报

 
a1990330 发表于 2019年8月25日 10:12:29 | 显示全部楼层
 
liwil 发表于 2019-8-18 14:08
' d" H8 K4 P& T( t還有88.71GB版本4 u- |2 j4 ^; f" v. K5 p; _$ Y& ^
4 P) l7 ?: O% @# u$ z2 U
Avengers.Endgame.2019.INTERNAL.UHD.DYNAMIC.HDR-X..TrueHD.Atmos.7.1-Ar ...

4 W7 T) x- q! p$ J好混亂喔
4 M: Z( W% h- {# |" i0 p# G1 c2 j) O我只抓hao版本的就行了....
回复 支持 反对

使用道具 举报

 
D之一族 发表于 2019年8月24日 18:44:41 | 显示全部楼层
 
饼饼 发表于 2019-8-23 22:46+ ]5 o: O9 I$ v; W* J
POT你百度直接搜索madVR的使用方法  看完你就知道如何操作了。
$ `% v8 G& Y# w" o8 p' Q& thao4k也有相关的教学贴你搜索一下
- m- \0 l3 f5 F3 ^4 G( v) X( m: x只用P ...
; F2 E$ j% ^/ k. z6 @
哥我按你的方法加了MAD渲染,效果跟原来一样,亮度也没变。其实只要像素着色下面三个勾上就跟MAD效果一样了。
回复 支持 反对

使用道具 举报

 
D之一族 发表于 2019年8月24日 18:14:42 | 显示全部楼层
 
饼饼 发表于 2019-8-23 22:46
9 x2 J6 l4 ]3 x+ T8 G  k7 ~POT你百度直接搜索madVR的使用方法  看完你就知道如何操作了。" _4 s0 o' Q7 C9 Z+ O8 p8 S3 w$ y5 e8 `
hao4k也有相关的教学贴你搜索一下
( T% g" s& h9 n" G7 |( H# o2 M6 g只用P ...

6 u# l4 Q/ v- i+ E& _非常感谢指导!还有一事,关于KODI投影问题,没有POTPLAYER这些功能,亮度都不能调节,是不是就没有办法了。因为想用投影仪看所以才下的4K原盘,只能看这种偏暗的效果的话就没了意义。。
回复 支持 反对

使用道具 举报

 
michaellv 发表于 2019年8月24日 17:41:38 | 显示全部楼层
 
carol.g 发表于 2019-8-21 10:48
, Q8 t4 _5 Z, E# q  S7 J听说漫威系列都是假4K的,这部复仇者联盟4也同样如此吗?
7 f+ [3 |5 S5 Q0 l' B; I5 r4 |. o, J: e
       另外很好奇这些制作88G版本的 ...
9 L( f7 L& u3 w3 C; `0 H  `
用重编码软件或X265编码器可以随便转的,低端手机拍的都能转出远超UHD原盘码率的来!
回复 支持 反对

使用道具 举报

 
294257934 发表于 2019年8月24日 17:34:54 | 显示全部楼层
 
那个兄弟有88g的字幕,分享下
回复 支持 反对

使用道具 举报

 
hacken 发表于 2019年8月24日 17:19:47 | 显示全部楼层
 
tee001 发表于 2019-8-24 12:114 j" X; y$ q) n6 T/ ]$ u
妇联4应该有imax版本吧。
, S& ^5 d* M4 d. O0 {3 \
目前没有。。。
回复 支持 反对

使用道具 举报

 
 楼主| tee001 发表于 2019年8月24日 12:11:37 | 显示全部楼层
 
妇联4应该有imax版本吧。
回复 支持 反对

使用道具 举报

 
饼饼 发表于 2019年8月23日 22:46:12 | 显示全部楼层
 
D之一族 发表于 2019-8-23 21:48) R; f0 I/ h4 f
POTPLAYER 啊,也是这里下的。投影仪上用的KODI,无法调节亮度,所以就是很暗。
/ {* \, v1 J7 t0 |1 T
POT你百度直接搜索madVR的使用方法  看完你就知道如何操作了。9 r+ v' ]5 h( \; o4 V
hao4k也有相关的教学贴你搜索一下
3 d: F: f( B& I) s* H* Z只用POT播放器无法正确映射HDR影片颜色。
% w: {5 D0 z6 r不想折腾想一劳永逸就买蓝光机(即使是DIY的碟机)
回复 支持 反对

使用道具 举报

 
您需要登录后才可以回帖 登录 | 立即注册

本版积分规则


2关注

2粉丝

1帖子

排行榜
作者专栏
  • wurenji

    主题数:190,精华帖:11
  • hkqqcc

    主题数:14,精华帖:0
  • opkqq00

    主题数:1,精华帖:0
  • 大虾

    主题数:289,精华帖:1
  • jsgz

    主题数:83,精华帖:0

关注微信公众号第一时间推送精彩

官方微信

手机访问

Hao4K影音

专注4k庭影音,提供家庭影音社区、家庭影音器材库、影音问答平台、影音商城服务家庭影音用户。

本站内容部分由用户自主分享和转载自互联网,转载目的在于传递更多信息,并不代表本网赞同其观点和对其真实性负责。

如有侵权、违反国家法律政策行为,请联系我们,我们会第一时间及时清除和处理!

举报反馈邮箱:admin@hao4k.cn

Copyright   ©2016-2019  Hao4K影音Powered by©Hao4K技术支持:Hao4K影音     ( 粤ICP备18155646号 )|网站地图