专注4K家庭影音, 服务千万家庭影音发烧友!
手机版
访问手机版

在线
客服

Hao4K影音在线客服服务时间: 9:00-24:00

选择下列客服马上在线沟通:

快速
发帖

关注
微信

关注微信二维码
顶部
开启左侧

吸血鬼猎人林肯4K.Abraham.Lincoln.Vampire.Hunter.2160p.BluRay.REMUX.HEVC.HDR.DTS.MA7.1.U-Dual-Hao4K

[复制链接]
小板凳 发表于 2019-10-5 12:45:19 | 显示全部楼层 |阅读模式 打印 上一主题 下一主题
电影频道
电影封面:
片  名: 吸血鬼猎人林肯4k
电影分类: 动作   恐怖   惊悚   奇幻   
国  家: 美国   
年  代: 2012    
分 辨 率: 4K(3840x2160)    
电影格式: MKV|REMUX   
画质标准: 其他 
音质编码: DTS:X    
电影声道: 7.1声道    5.1声道    
电影语言: 英文原版     
资源大小: 50.42 GB
导  演: 提莫·贝克曼贝托夫
豆瓣评分: -
中文字幕: -
剧情简介:  19世纪上半叶,后来在美国历史上留下重要足迹的亚伯拉罕·林肯(本杰明·沃克 Benjamin Walker 饰)还只是一个背负着杀母仇恨的年轻人。在一个充满不祥气息的夜晚,他举枪刺杀了仇人,但已经遭受了致命伤的仇家却凶恶反扑。关键时刻,林肯被名叫亨利·斯特吉斯(多米尼克· 库伯 Dominic Cooper 饰)的男人所救。从亨利口中得知,他险些被变成吸血鬼的仇家杀害。经过一番艰苦特训,林肯成为吸血鬼猎人。正值此时,吸血鬼业已蔓延整个美国南部,并渐次向北方推进。
  在亨利的指示下,林肯返回城镇,展开了针对吸血鬼似乎永无止境的猎杀,而吸血鬼制造者杰克·巴兹(Marton Csokas 饰)也注意到了这名“索命死神”的存在……
 

吸血鬼猎人:林肯总统(台) / 吸血鬼猎人:林肯(港) / 亚伯拉罕·林肯:吸血鬼猎人 / 深夜猎人/吸血鬼猎人林肯4k Abraham Lincoln Vampire Hunter 2160p HDR-U Dual Hiro360电影信息
THIS IS NOT OFFICIAL RELEASE. UPSCALED BY MY SELF
  1. Format : Matroska
  2. Format version : Version 4 / Version 2
  3. File size : 50.4 GiB
  4. Duration : 1h 45mn
  5. Overall bit rate : 68.7 Mbps
  6. Movie name : BaixarBluray.net - Alta Definição é Aqui
  7. Encoded date : UTC 2019-09-27 21:16:18
  8. Writing application : mkvmerge v35.0.0 ('All The Love In The World') 64-bit
  9. Writing library : libebml v1.3.9 + libmatroska v1.5.2

  10. Video
  11. ID : 1
  12. Format : HEVC
  13. Format/Info : High Efficiency Video Coding
  14. Format profile : Main 10@L5.1@High
  15. Codec ID : V_MPEGH/ISO/HEVC
  16. Duration : 1h 45mn
  17. Bit rate : 61.9 Mbps
  18. Width : 3 840 pixels
  19. Height : 2 160 pixels
  20. Display aspect ratio : 16:9
  21. Frame rate mode : Constant
  22. Frame rate : 23.976 (24000/1001) fps
  23. Standard : Component
  24. Color space : YUV
  25. Chroma subsampling : 4:2:0
  26. Bit depth : 10 bits
  27. Bits/(Pixel*Frame) : 0.311
  28. Stream size : 45.4 GiB (90%)
  29. Title : BaixarBluray.net - Alta Definição é Aqui
  30. Default : Yes
  31. Forced : No
  32. Color range : Limited

  33. Audio #1
  34. ID : 2
  35. Format : DTS
  36. Format/Info : Digital Theater Systems
  37. Format profile : MA / Core
  38. Mode : 16
  39. Format settings, Endianness : Big
  40. Codec ID : A_DTS
  41. Duration : 1h 45mn
  42. Bit rate mode : Variable / Constant
  43. Bit rate : 4 899 Kbps / 1 509 Kbps
  44. Channel(s) : 8 channels / 6 channels
  45. Channel positions : Front: L C R, Side: L R, Back: L R, LFE / Front: L C R, Side: L R, LFE
  46. Sampling rate : 48.0 KHz
  47. Frame rate : 93.750 fps (512 spf)
  48. Bit depth : 24 bits
  49. Compression mode : Lossless / Lossy
  50. Stream size : 3.59 GiB (7%)
  51. Title : Surround 7.1
  52. Language : English
  53. Default : Yes
  54. Forced : No

  55. Audio #2
  56. ID : 3
  57. Format : DTS
  58. Format/Info : Digital Theater Systems
  59. Mode : 16
  60. Format settings, Endianness : Big
  61. Codec ID : A_DTS
  62. Duration : 1h 45mn
  63. Bit rate mode : Constant
  64. Bit rate : 1 509 Kbps
  65. Channel(s) : 6 channels
  66. Channel positions : Front: L C R, Side: L R, LFE
  67. Sampling rate : 48.0 KHz
  68. Frame rate : 93.750 fps (512 spf)
  69. Bit depth : 24 bits
  70. Compression mode : Lossy
  71. Stream size : 1.11 GiB (2%)
  72. Title : Surround 5.1
  73. Language : English
  74. Default : No
  75. Forced : No

  76. Audio #3
  77. ID : 4
  78. Format : AC-3
  79. Format/Info : Audio Coding 3
  80. Mode extension : CM (complete main)
  81. Format settings, Endianness : Big
  82. Codec ID : A_AC3
  83. Duration : 1h 45mn
  84. Bit rate mode : Constant
  85. Bit rate : 448 Kbps
  86. Channel(s) : 6 channels
  87. Channel positions : Front: L C R, Side: L R, LFE
  88. Sampling rate : 48.0 KHz
  89. Frame rate : 31.250 fps (1536 spf)
  90. Compression mode : Lossy
  91. Stream size : 336 MiB (1%)
  92. Title : Surround 5.1
  93. Language : Portuguese
  94. Default : No
  95. Forced : No

  96. Text #1
  97. ID : 5
  98. Format : PGS
  99. Muxing mode : zlib
  100. Codec ID : S_HDMV/PGS
  101. Codec ID/Info : Picture based subtitle format used on BDs/HD-DVDs
  102. Duration : 1h 44mn
  103. Bit rate : 26.1 Kbps
  104. Count of elements : 2028
  105. Stream size : 19.5 MiB (0%)
  106. Language : Portuguese
  107. Default : No
  108. Forced : No

  109. Text #2
  110. ID : 6
  111. Format : PGS
  112. Muxing mode : zlib
  113. Codec ID : S_HDMV/PGS
  114. Codec ID/Info : Picture based subtitle format used on BDs/HD-DVDs
  115. Duration : 1h 38mn
  116. Bit rate : 137 bps
  117. Count of elements : 10
  118. Stream size : 99.0 KiB (0%)
  119. Language : Portuguese
  120. Default : Yes
  121. Forced : No
复制代码

吸血鬼猎人:林肯总统(台) / 吸血鬼猎人:林肯(港) / 亚伯拉罕·林肯:吸血鬼猎人 / 深夜猎人/吸血鬼猎人林肯4k Abraham Lincoln Vampire Hunter 2160p HDR-U Dual Hiro360电影下载

吸血鬼猎人林肯4k Abraham.Lincoln.Vampire.Hunter.2160p.HDR-U.Dual.Hiro360.mkv【50.42 GB】
吸血鬼猎人林肯4K.Abraham.Lincoln.Vampire.Hunter.2160p.BluRay.REMUX.HEVC.HDR.DTS..torrent
(附件大小: 283.46 KB   资源售价: 2 K币)
更多图片 小图 大图
组图打开中,请稍候......
回复

使用道具 举报

 

精彩评论45

正序浏览
tylfl 发表于 2019-10-5 13:56:59 来自手机 | 显示全部楼层
 
多谢楼主分享佳片。
回复 支持 反对

使用道具 举报

 
QQ_9CF4C4 发表于 2019-10-5 15:13:20 来自手机 | 显示全部楼层
 
速度在哪里?做种先呀?发这资源干嘛
回复 支持 0 反对 3

使用道具 举报

 
solarstars 发表于 2019-10-5 18:21:46 | 显示全部楼层
 
没速度啊,咋回事
回复 支持 反对

使用道具 举报

 
yueqiang686 发表于 2019-10-5 19:35:25 | 显示全部楼层
 
支持楼主,但感觉这个电影除了人名借鉴了林肯,跟美国总统没有半毛钱关系啊
回复 支持 反对

使用道具 举报

 
ryah 发表于 2019-10-5 20:11:22 | 显示全部楼层
 
骗人的,根本下不了
回复 支持 反对

使用道具 举报

 
铁鹰 发表于 2019-10-5 20:16:37 | 显示全部楼层
 
根本没速度,下载不了,请楼主检查链接。
回复 支持 反对

使用道具 举报

 
小板凳 发表于 2019-10-5 22:27:22 | 显示全部楼层
 
ryah 发表于 2019年10月5日 20:11
骗人的,根本下不了

资源是没有问题的,新资源刚开始下载都很慢的
回复 支持 反对

使用道具 举报

 
 楼主| 小板凳 发表于 2019-10-5 22:27:44 | 显示全部楼层
 
铁鹰 发表于 2019年10月5日 20:16
根本没速度,下载不了,请楼主检查链接。

新资源,坚持挂机
回复 支持 反对

使用道具 举报

 
 楼主| 小板凳 发表于 2019-10-5 22:28:59 | 显示全部楼层
 
yueqiang686 发表于 2019年10月5日 19:35
支持楼主,但感觉这个电影除了人名借鉴了林肯,跟美国总统没有半毛钱关系啊

感谢支持。电影名字其实就是个噱头,才可以引起关注
回复 支持 反对

使用道具 举报

 
 楼主| 小板凳 发表于 2019-10-5 22:29:12 | 显示全部楼层
 

新资源,坚持挂机
回复 支持 反对

使用道具 举报

 
 楼主| 小板凳 发表于 2019-10-5 22:30:45 | 显示全部楼层
 
QQ_9CF4C4 发表于 2019年10月5日 15:13
速度在哪里?做种先呀?发这资源干嘛

我一个人做种也不行啊,国内全网我这个资源也算是首发,新资源要点耐心下载的。
回复 支持 反对

使用道具 举报

 
 楼主| cxw1223 发表于 2019-10-6 00:22:26 来自手机 | 显示全部楼层
 
感谢分享,,。
回复 支持 反对

使用道具 举报

 
nanwannan 发表于 2019-10-6 01:28:56 | 显示全部楼层
 
大家都坚持下  我先挂着
回复 支持 反对

使用道具 举报

 
cxw1223 发表于 2019-10-6 11:19:25 来自手机 | 显示全部楼层
 
谢谢分享,,
回复 支持 反对

使用道具 举报

 
QQ_9CF4C4 发表于 2019-10-6 14:42:59 来自手机 | 显示全部楼层
 
百分之几又没速度了,出鬼了!
回复 支持 反对

使用道具 举报

 
ybh555 发表于 2019-10-6 16:57:11 | 显示全部楼层
 
这情节设置不错
回复 支持 反对

使用道具 举报

 
爷们无所谓 发表于 2019-10-6 20:48:02 | 显示全部楼层
 
这个很好看啊
回复 支持 反对

使用道具 举报

 
您需要登录后才可以回帖 登录 | 立即注册

本版积分规则


0关注

5粉丝

15帖子

排行榜

关注微信公众号第一时间推送精彩

官方微信

手机访问

Hao4K影音

专注4k庭影音,提供家庭影音社区、家庭影音器材库、影音问答平台、影音商城服务家庭影音用户。

本站内容部分由用户自主分享和转载自互联网,转载目的在于传递更多信息,并不代表本网赞同其观点和对其真实性负责。

如有侵权、违反国家法律政策行为,请联系我们,我们会第一时间及时清除和处理!

举报反馈邮箱:admin@hao4k.cn

Copyright   ©2016-2019  Hao4K影音Powered by©Hao4K 粤公网安备 44030302001429号   粤ICP备18155646号-1 |网站地图