专注4K家庭影音, 服务千万家庭影音发烧友!
手机版
访问手机版

在线
客服

Hao4K影音在线客服服务时间: 9:00-24:00

选择下列客服马上在线沟通:

快速
发帖

关注
微信

关注微信二维码
顶部

月影杀痕4k In.the.Shadow.of.the.Moon.2019.2160p.NF.WEBRip.x265.10bit.HDR.DDP5.1.Atmos电影

[复制链接]
踏浪天际 发表于 2019-10-12 09:26:54 | 显示全部楼层 |阅读模式 打印 上一主题 下一主题
电影频道
电影封面:
片  名: 月影杀痕4k
电影分类: 科幻   
国  家: 美国   
年  代: 2019
分 辨 率: 4K(3840x2160)    
电影格式: MKV|REMUX   
画质标准: HDR10 
音质编码: Dolby Digital Plus Audio    
电影声道: 5.1声道    
电影语言: 英文原版     
资源大小: 13.44 GB
导  演: 吉姆·米可
豆瓣评分: -
中文字幕: /thread-39559-1-1.html
剧情简介: 1988 年,心怀侦探梦想的费城警官托马斯·洛克哈特(波伊德·霍布鲁克饰演)开始追踪一名连环杀手,此人每隔 9 年就神秘地出现一次。但是当杀手的罪行开始违背所有的科学解释时,洛克对真相的痴迷可能会毁掉他的事业、家庭,甚至是他的心智。《月影杀痕》是一部混合题材的心理惊悚片,探讨了时间的力量,以及时间的流逝如何使我们相聚又分开。该片由吉姆·米可执导,其他主演包括迈克尔·C·豪尔和克利欧佩特拉·科尔曼。
 
月下缉凶(港) / 凶月(台)/月影杀痕4k In.the.Shadow.of.the.Moon.2019.2160p.NF.WEBRip.x265.10bit.HDR.DDP5.1.Atmos电影信息
5 N3 m) U, e  u0 V- N* J  Q
  1. Video$ ^+ S, b. i6 R' ~( m- p
  2. ID : 1! ~" F, V, `$ {, X4 S% T' y; X
  3. Format : HEVC& X- {1 {0 C% S. n- \. h5 p
  4. Format/Info : High Efficiency Video Coding; z! d) \1 B$ q; \( G# i4 i
  5. Format profile : Main 10@L5@Main
    9 g1 f6 q" i- Y, P8 C
  6. HDR format : SMPTE ST 2086, HDR10 compatible2 K2 p1 L# P( v, X8 O4 o
  7. Codec ID : V_MPEGH/ISO/HEVC
    8 X) G, T9 q' X- d
  8. Duration : 1 h 55 min
    3 ?* _1 K+ Y3 N7 k- G
  9. Bit rate : 15.6 Mb/s% n( ?4 j% l7 g& e" {
  10. Width : 3 840 pixels# j3 U* Q1 R! H
  11. Height : 1 606 pixels
    7 s' z) r( |" X+ H) C
  12. Display aspect ratio : 2.40:1
      O9 s: u8 ^/ ^$ u1 l  U
  13. Frame rate mode : Constant) j2 H5 M- B) J8 |. t
  14. Frame rate : 24.000 FPS! F, B) }" X* K4 ^
  15. Color space : YUV
    7 O" S- Z2 Q' Y5 ^% [9 \0 f
  16. Chroma subsampling : 4:2:0
    / u$ J. ~6 _4 g. n- D& t
  17. Bit depth : 10 bits
    5 G& W: f7 s6 o4 R# ^* @
  18. Bits/(Pixel*Frame) : 0.105
    4 p4 V; _/ @8 Y2 l( X+ c
  19. Stream size : 12.6 GiB (93%)
    4 ]4 z, W* Y; o# }( Y
  20. Writing library : x265 3.1_RC1+3-3bdf06e3c628:[Windows][MSVC 1921][64 bit] 10bit
    ! |- G( i# @3 m5 u3 q
  21. Encoding settings : cpuid=1111039 / frame-threads=4 / numa-pools=0,28 / wpp / no-pmode / no-pme / no-psnr / no-ssim / log-level=2 / input-csp=1 / input-res=3840x1606 / interlace=0 / total-frames=0 / level-idc=0 / high-tier=1 / uhd-bd=0 / ref=5 / no-allow-non-conformance / repeat-headers / annexb / no-aud / no-hrd / info / hash=0 / no-temporal-layers / open-gop / min-keyint=24 / keyint=250 / gop-lookahead=0 / bframes=8 / b-adapt=2 / b-pyramid / bframe-bias=0 / rc-lookahead=40 / lookahead-slices=0 / scenecut=40 / radl=0 / no-splice / no-intra-refresh / ctu=64 / min-cu-size=8 / no-rect / no-amp / max-tu-size=32 / tu-inter-depth=3 / tu-intra-depth=3 / limit-tu=0 / rdoq-level=1 / dynamic-rd=0.00 / no-ssim-rd / signhide / no-tskip / nr-intra=0 / nr-inter=0 / no-constrained-intra / strong-intra-smoothing / max-merge=5 / limit-refs=0 / no-limit-modes / me=3 / subme=4 / merange=57 / temporal-mvp / weightp / weightb / no-analyze-src-pics / deblock=0:0 / no-sao / no-sao-non-deblock / rd=6 / no-early-skip / rskip / no-fast-intra / no-tskip-fast / no-cu-lossless / b-intra / no-splitrd-skip / rdpenalty=0 / psy-rd=4.00 / psy-rdoq=8.00 / no-rd-refine / no-lossless / cbqpoffs=0 / crqpoffs=0 / rc=crf / crf=16.0 / qcomp=0.60 / qpstep=4 / stats-write=0 / stats-read=0 / ipratio=1.40 / pbratio=1.30 / aq-mode=2 / aq-strength=1.00 / cutree / zone-count=0 / no-strict-cbr / qg-size=32 / no-rc-grain / qpmax=69 / qpmin=0 / no-const-vbv / sar=0 / overscan=0 / videoformat=5 / range=0 / colorprim=9 / transfer=16 / colormatrix=9 / chromaloc=0 / display-window=0 / master-display=G(13250,34500)B(7500,3000)R(34000,16000)WP(15635,16450)L(10000000,50)cll=7953,720 / min-luma=0 / max-luma=1023 / log2-max-poc-lsb=8 / vui-timing-info / vui-hrd-info / slices=1 / no-opt-qp-pps / no-opt-ref-list-length-pps / no-multi-pass-opt-rps / scenecut-bias=0.05 / no-opt-cu-delta-qp / no-aq-motion / hdr / hdr-opt / no-dhdr10-opt / no-idr-recovery-sei / analysis-reuse-level=5 / scale-factor=0 / refine-intra=0 / refine-inter=0 / refine-mv=0 / refine-ctu-distortion=0 / no-limit-sao / ctu-info=0 / no-lowpass-dct / refine-analysis-type=0 / copy-pic=1 / max-ausize-factor=1.0 / no-dynamic-refine / no-single-sei / no-hevc-aq / no-svt / no-field / qp-adaptation-range=1.00/ N/ s' N* x8 p7 I+ q2 ?# ?
  22. Default : Yes7 x* p" J3 G" p% u$ w
  23. Forced : No# {0 k+ \: T. F
  24. Color range : Limited
    / S, d& y% f9 q1 R* v7 D, s5 R
  25. Color primaries : BT.2020+ u) _! z6 J( r9 G2 }; Q% e; T
  26. Transfer characteristics : PQ
    * w8 n' }& I/ b7 M
  27. Matrix coefficients : BT.2020 non-constant
    & z& m& f  x1 b2 B! R3 c. U& n7 J
  28. Mastering display color primaries : Display P3+ g5 k9 W: y. C5 T
  29. Mastering display luminance : min: 0.0050 cd/m2, max: 1000 cd/m2$ l7 g. U5 Q& O. a4 t% J) I
  30. Maximum Content Light Level : 7953 cd/m2
    - M% v5 n  ?" m) @+ J* z
  31. Maximum Frame-Average Light Level : 720 cd/m2
    ! ], a$ s/ B8 E* p6 B! \' n

  32. 9 f0 c1 @# `8 W2 d
  33. Audio2 s/ _' _3 _% d4 a( ?
  34. ID : 2  S& ]$ v- B- h6 q
  35. Format : E-AC-3 JOC
      _* D; {8 B9 {" C" ^
  36. Format/Info : Enhanced AC-3 with Joint Object Coding
    ' Y3 F! N$ G0 ]# {
  37. Commercial name : Dolby Digital Plus with Dolby Atmos
    0 L  p# E" E, Z% u& y1 k
  38. Codec ID : A_EAC3+ [! q7 C" ~% v  f3 R' r
  39. Duration : 1 h 55 min( Y( R5 U. I: t1 {- Q
  40. Bit rate mode : Constant
    , x& ~* q8 [9 W+ h
  41. Bit rate : 768 kb/s) a" ^% E  W& g4 m, u3 D
  42. Channel(s) : 6 channels
    2 p8 V+ S& k' }3 ]" ?) q
  43. Channel layout : L R C LFE Ls Rs+ U* k6 x* M8 W
  44. Sampling rate : 48.0 kHz
    0 A  ]4 |- V2 T8 b( N3 b
  45. Frame rate : 31.250 FPS (1536 SPF)
    , j- u+ w/ L4 k, C! a
  46. Compression mode : Lossy
    % F7 N, z4 p1 _9 n" q) l
  47. Stream size : 635 MiB (5%)
    3 K) J3 m; ?5 J1 N# U7 c
  48. Title : English( d( ?5 i$ e6 l9 l- g
  49. Language : English
    3 U! a; g& C6 G: R3 L
  50. Service kind : Complete Main( q4 ~, x" t1 s' J  @0 T1 y
  51. Default : Yes9 r: q3 g3 S  y4 e- J! {( V
  52. Forced : No
    1 s0 ^* B! y% i2 }: D' l
  53. Complexity index : 16, [/ C: X1 J$ D- S) }
  54. Number of dynamic objects : 15
    " N5 d$ p2 c. `  e+ B  z
  55. Bed channel count : 1 channel- H& ~$ s3 i! T1 B$ u: n
  56. Bed channel configuration : LFE- E2 J1 l* t3 q

  57. - b, \2 Q% a7 v1 U* a1 r
  58. Text #1
    4 A5 d8 i' l: l. |; V6 L. {
  59. ID : 3
    % c! f% D. J6 [* f
  60. Format : UTF-8
    ; t, c% M0 g4 y& I+ [; U( b
  61. Codec ID : S_TEXT/UTF8
    $ G+ t1 [6 v) p- C0 I
  62. Codec ID/Info : UTF-8 Plain Text
    ! r, u% P2 d( P4 p& N& i1 T* u
  63. Title : English
      ^  A8 d7 i9 l0 X+ c( [
  64. Language : English# x* _6 l8 Z) `
  65. Default : No8 W  R3 ^; B1 R& f
  66. Forced : No
    9 {; M! J( L* E% H$ ^. W( G( t( b3 d
  67. " X' N% |1 {4 h% H5 t1 x3 I# U; ~
  68. Text #2
    8 O  m' T6 Z% X' `7 \
  69. ID : 4+ @, S$ m' @- l  S
  70. Format : UTF-8
    ; Y. Q# v' X, H- w% [2 u' n
  71. Codec ID : S_TEXT/UTF81 |: x4 o( |/ i9 }, p8 v; f
  72. Codec ID/Info : UTF-8 Plain Text
    5 I  \9 O9 |+ T
  73. Title : English [SDH]
    1 ]+ b, t, E' i# [" {3 C
  74. Language : English# d/ P  z  u( d2 z0 Q
  75. Default : No
    6 Y+ G/ Y6 Q7 [; U
  76. Forced : No
复制代码
月下缉凶(港) / 凶月(台)/月影杀痕4k In.the.Shadow.of.the.Moon.2019.2160p.NF.WEBRip.x265.10bit.HDR.DDP5.1.Atmos电影下载
( g/ t9 o0 }2 v月影杀痕4k In.the.Shadow.of.the.Moon.2019.2160p.NF.WEBRip.x265.10bit.HDR.DDP5.1.Atmos【13.44 GB】& X4 O  W2 R6 \" y1 k% B0 z* N
月影杀痕4k In.the.Shadow.of.the.Moon.2019.2160p.NF.WEBRip.x265.10bit.HDR.DDP5.1..torrent
(附件大小: 67.81 KB   资源售价: 2 K币)
回复

使用道具 举报

 

精彩评论36

倒序浏览
haozi2009109 发表于 前天 02:04 | 显示全部楼层
 
感谢楼主,希望有更多资源。
回复 支持 反对

使用道具 举报

 
xnlt568 发表于 3 天前 | 显示全部楼层
 
感谢楼主,辛苦了
) S: S$ A! {% a2 t4 `, ]8 I5 r% F  K
回复 支持 反对

使用道具 举报

 
范先生0503 发表于 5 天前 | 显示全部楼层
 
感谢楼主无私奉献
回复 支持 反对

使用道具 举报

 
sfcoo 发表于 6 天前 | 显示全部楼层
 

1 D2 Y0 I4 T6 q/ C' ~感谢楼主精彩分享,辛苦了。
回复 支持 反对

使用道具 举报

 
ww1ww2ww 发表于 6 天前 | 显示全部楼层
 
感谢提供这么好的资源楼主辛苦了
回复 支持 反对

使用道具 举报

 
exboyfriend 发表于 6 天前 来自手机 | 显示全部楼层
 
谢谢分享,好东西
回复 支持 反对

使用道具 举报

 
lam 发表于 7 天前 | 显示全部楼层
 
哪里下载啊
回复 支持 反对

使用道具 举报

 
qyrhb 发表于 2019-11-6 20:08:42 | 显示全部楼层
 
顶楼主,辛苦了
回复 支持 反对

使用道具 举报

 
DCA937 发表于 2019-11-4 15:51:45 来自手机 | 显示全部楼层
 
好资源,谢谢啦
回复 支持 反对

使用道具 举报

 
yxp18 发表于 2019-10-30 14:30:43 | 显示全部楼层
 
谢谢分享,好东西
回复 支持 反对

使用道具 举报

 
冰山火种 发表于 2019-10-23 20:15:07 | 显示全部楼层
 
感谢分享!!!!!
回复 支持 反对

使用道具 举报

 
shencen0909 发表于 2019-10-23 11:48:15 | 显示全部楼层
 
感谢楼主,希望有更多资源
回复 支持 反对

使用道具 举报

 
影子武士 发表于 2019-10-17 19:00:30 | 显示全部楼层
 
好片子。收藏了,希望能够顺利下载!
回复 支持 反对

使用道具 举报

 
fxm53050151 发表于 2019-10-17 09:56:41 来自手机 | 显示全部楼层
 
感谢楼主,希望有更多资源。
回复 支持 反对

使用道具 举报

 
170271 发表于 2019-10-15 15:10:32 | 显示全部楼层
 
感谢楼主分享
回复 支持 反对

使用道具 举报

 
滨滨滨滨滨滨滨 发表于 2019-10-15 11:28:37 | 显示全部楼层
 

1 k* F! k, u0 V3 ^) n/ y! y% X4 N& N感谢提供这么好的资源楼主辛苦了
回复 支持 反对

使用道具 举报

 
as2002 发表于 2019-10-14 16:12:29 | 显示全部楼层
 
感谢楼主精彩分享
回复 支持 反对

使用道具 举报

 
您需要登录后才可以回帖 登录 | 立即注册

本版积分规则


0关注

0粉丝

2帖子

排行榜
作者专栏

关注微信公众号第一时间推送精彩

官方微信

手机访问

Hao4K影音

专注4k庭影音,提供家庭影音社区、家庭影音器材库、影音问答平台、影音商城服务家庭影音用户。

本站内容部分由用户自主分享和转载自互联网,转载目的在于传递更多信息,并不代表本网赞同其观点和对其真实性负责。

如有侵权、违反国家法律政策行为,请联系我们,我们会第一时间及时清除和处理!

举报反馈邮箱:admin@hao4k.cn

Copyright   ©2016-2019  Hao4K影音Powered by©Hao4K 粤公网安备 44030302001429号   粤ICP备18155646号-1 |网站地图