专注4K家庭影音, 服务千万家庭影音发烧友!
手机版
访问手机版

在线
客服

Hao4K影音在线客服服务时间: 9:00-24:00

选择下列客服马上在线沟通:

快速
发帖

关注
微信

关注微信二维码
顶部

[4K 美剧] 拉米 第一季4k Ramy.S01.2160p.HULU.WEBRip.DDP5.1.x265电视剧

[复制链接]
大红色 发表于 2019-10-13 10:15:32 | 显示全部楼层 |阅读模式 打印 上一主题 下一主题
电视剧频道
电视剧封面:
电视剧名: 拉米 第一季4k
年  代: 2019  
国  家: 美国
类  别: 喜剧 
语  言: 英语
字  幕: 英文原版
上映日期: 2019-04-19
文件格式: mkv    
视频效果: 4K(3840x2160)    
资源大小: 30.50 GB
片  长: 60 分钟
导  演: 雪梨·道比什 / 哈利·布拉德比尔 / 耶菡·妮珍儿 / 拉米·尤素夫 / Christopher Storer
剧情简介: 《拉米 Ramy》由喜剧演员Ramy Youssef以及Ari Katcher与Ryan Welch共同创作及编剧,灵感来自Ramy Youssef的个人经历。剧中第一代埃及裔美籍穆斯林Ramy(Ramy Youssef饰)在政治分歧的新泽西作灵性旅程。在这埃及社区中分别有认为生活是道德考验的一群人,以及认为生活没有后果的千禧一代。
  其他演员包括Mohammed Amer﹑Hiam Abbass﹑Amr Waked﹑May Calamawy﹑David Merheje﹑Laith Nakli及Steve Way。
 
拉米在美国/拉米 第一季4k Ramy.S01.2160p.HULU.WEBRip.DDP5.1.x265电视剧信息
  1. Video
  2. ID : 1
  3. Format : HEVC
  4. Format/Info : High Efficiency Video Coding
  5. Format profile : Main 10@L5.1@Main
  6. Codec ID : V_MPEGH/ISO/HEVC
  7. Duration : 30 min 54 s
  8. Bit rate : 15.8 Mb/s
  9. Width : 3 840 pixels
  10. Height : 2 160 pixels
  11. Display aspect ratio : 16:9
  12. Frame rate mode : Constant
  13. Frame rate : 23.976 (24000/1001) FPS
  14. Color space : YUV
  15. Chroma subsampling : 4:2:0
  16. Bit depth : 10 bits
  17. Bits/(Pixel*Frame) : 0.080
  18. Stream size : 3.42 GiB (98%)
  19. Language : English
  20. Default : Yes
  21. Forced : No

  22. Audio
  23. ID : 2
  24. Format : E-AC-3
  25. Format/Info : Enhanced AC-3
  26. Commercial name : Dolby Digital Plus
  27. Codec ID : A_EAC3
  28. Duration : 30 min 54 s
  29. Bit rate mode : Constant
  30. Bit rate : 256 kb/s
  31. Channel(s) : 6 channels
  32. Channel layout : L R C LFE Ls Rs
  33. Sampling rate : 48.0 kHz
  34. Frame rate : 31.250 FPS (1536 SPF)
  35. Compression mode : Lossy
  36. Stream size : 56.6 MiB (2%)
  37. Language : English
  38. Service kind : Complete Main
  39. Default : Yes
  40. Forced : No

  41. Text
  42. ID : 3
  43. Format : UTF-8
  44. Codec ID : S_TEXT/UTF8
  45. Codec ID/Info : UTF-8 Plain Text
  46. Duration : 28 min 48 s
  47. Bit rate : 100 b/s
  48. Count of elements : 613
  49. Stream size : 21.2 KiB (0%)
  50. Title : English
  51. Language : English
  52. Default : No
  53. Forced : No
复制代码

拉米在美国/拉米 第一季4k Ramy.S01.2160p.HULU.WEBRip.DDP5.1.x265电视剧下载

拉米 第一季4k Ramy.S01.2160p.HULU.WEBRip.DDP5.1.x265【30.50 GB】
拉米 第一季4k Ramy.S01.2160p.HULU.WEBRip.DDP5.1.x265-NiXON[rartv].torrent
(附件大小: 77.45 KB  )
标签:拉米电视剧
回复

使用道具 举报

 

精彩评论1

倒序浏览
懂得自己 发表于 2019-10-13 11:05:33 | 显示全部楼层
 
鄙视楼下的顶帖没我快,哈哈
回复 支持 反对

使用道具 举报

 
您需要登录后才可以回帖 登录 | 立即注册

本版积分规则


0关注

0粉丝

39帖子

排行榜
作者专栏

关注微信公众号第一时间推送精彩

官方微信

手机访问

Hao4K影音

专注4k庭影音,提供家庭影音社区、家庭影音器材库、影音问答平台、影音商城服务家庭影音用户。

本站内容部分由用户自主分享和转载自互联网,转载目的在于传递更多信息,并不代表本网赞同其观点和对其真实性负责。

如有侵权、违反国家法律政策行为,请联系我们,我们会第一时间及时清除和处理!

举报反馈邮箱:admin@hao4k.cn

Copyright   ©2016-2019  Hao4K影音Powered by©Hao4K 粤公网安备 44030302001429号   粤ICP备18155646号-1 |网站地图