专注4K家庭影音, 服务千万家庭影音发烧友!
手机版
访问手机版

在线
客服

Hao4K影音在线客服服务时间: 9:00-24:00

选择下列客服马上在线沟通:

快速
发帖

关注
微信

关注微信二维码
顶部

[4K 美剧] 烈阳 第一季4k Hard.Sun.S01.2160p.HULU.WEBRip.DDP5.1.x265电视剧

[复制链接]
大红色 发表于 2019-10-14 09:52:04 | 显示全部楼层 |阅读模式 打印 上一主题 下一主题
电视剧频道
电视剧封面:
电视剧名: 烈阳4k
年  代: 2018  
国  家: 美国
类  别: 犯罪 剧情 灾难 
语  言: 英语
字  幕: 英文原版
上映日期: 2018-03-07
文件格式: mkv    
视频效果: 4K(3840x2160)    
资源大小: 35.26 GB
片  长: -
导  演: 布莱恩·柯克 / Nick Rowland
剧情简介:  Hulu与BBC合作打造Neil Cross执导的罪案剧《烈阳 Hard Sun》,Jim Sturgess和Agyness Deyn将担任主角。这部6集剧在2015年12月被BBC买下,Hulu后来宣布参与联合制作。《烈阳》于英国时间1月6日在BBC先播,然后美国时间3月7日于Hulu上线。
  《烈阳》背景设置在当代伦敦,主角是两名警探Ro bert Hicks(Jim Sturgess饰)和Elaine Renko(Agyness Deyn饰),他们的世界已在自然灾难下接近末日,而在环境日益被摧残的情况下,主角二人仍得继续去执法及保护亲人。Robert是个爱家庭﹑肯承担的警官,但同时也已经极度腐败;而Elaine是个难以相处﹑性格受损的人,但她坚持两袖清风。这两个警察无论在社会及道德两个立场上皆截然相反,而且他两亦极度不互信;但如果他们想活到亲临世界末日的那一天,就需要相互合作起来。
 
本帖最后由 大红色 于 2019年10月14日 09:54 编辑

坚阳 / 骄阳/烈阳4k Hard.Sun.S01.2160p.HULU.WEBRip.DDP5.1.x265资源信息
  1. Video
  2. ID : 1
  3. Format : HEVC
  4. Format/Info : High Efficiency Video Coding
  5. Format profile : Main 10@L5.1@Main
  6. Codec ID : V_MPEGH/ISO/HEVC
  7. Duration : 57 min 50 s
  8. Bit rate : 15.7 Mb/s
  9. Width : 3 840 pixels
  10. Height : 2 160 pixels
  11. Display aspect ratio : 16:9
  12. Frame rate mode : Constant
  13. Frame rate : 25.000 FPS
  14. Color space : YUV
  15. Chroma subsampling : 4:2:0
  16. Bit depth : 10 bits
  17. Bits/(Pixel*Frame) : 0.076
  18. Stream size : 6.36 GiB (98%)
  19. Language : English
  20. Default : Yes
  21. Forced : No

  22. Audio
  23. ID : 2
  24. Format : E-AC-3
  25. Format/Info : Enhanced AC-3
  26. Commercial name : Dolby Digital Plus
  27. Codec ID : A_EAC3
  28. Duration : 57 min 50 s
  29. Bit rate mode : Constant
  30. Bit rate : 256 kb/s
  31. Channel(s) : 6 channels
  32. Channel layout : L R C LFE Ls Rs
  33. Sampling rate : 48.0 kHz
  34. Frame rate : 31.250 FPS (1536 SPF)
  35. Compression mode : Lossy
  36. Stream size : 106 MiB (2%)
  37. Language : English
  38. Service kind : Complete Main
  39. Default : Yes
  40. Forced : No

  41. Text
  42. ID : 3
  43. Format : UTF-8
  44. Codec ID : S_TEXT/UTF8
  45. Codec ID/Info : UTF-8 Plain Text
  46. Duration : 57 min 48 s
  47. Bit rate : 58 b/s
  48. Count of elements : 1022
  49. Stream size : 24.6 KiB (0%)
  50. Title : English
  51. Language : English
  52. Default : No
  53. Forced : No
复制代码

坚阳 / 骄阳/烈阳4k Hard.Sun.S01.2160p.HULU.WEBRip.DDP5.1.x265资源下载
烈阳4k Hard.Sun.S01.2160p.HULU.WEBRip.DDP5.1.x265【35.26 GB】
烈阳4k Hard.Sun.S01.2160p.HULU.WEBRip.DDP5.1.x265-BREXiT[rartv].torrent
(附件大小: 89.08 KB  )
标签:电视剧
回复

使用道具 举报

 

精彩评论2

倒序浏览
sunso 发表于 2019-10-16 16:23:01 | 显示全部楼层
 
谢谢分享。。。。。。
回复 支持 反对

使用道具 举报

 
o年華果腹ツ 发表于 2019-10-14 10:42:04 | 显示全部楼层
 
佩服佩服!
回复 支持 反对

使用道具 举报

 
您需要登录后才可以回帖 登录 | 立即注册

本版积分规则


0关注

0粉丝

35帖子

排行榜
作者专栏

关注微信公众号第一时间推送精彩

官方微信

手机访问

Hao4K影音

专注4k庭影音,提供家庭影音社区、家庭影音器材库、影音问答平台、影音商城服务家庭影音用户。

本站内容部分由用户自主分享和转载自互联网,转载目的在于传递更多信息,并不代表本网赞同其观点和对其真实性负责。

如有侵权、违反国家法律政策行为,请联系我们,我们会第一时间及时清除和处理!

举报反馈邮箱:admin@hao4k.cn

Copyright   ©2016-2019  Hao4K影音Powered by©Hao4K 粤公网安备 44030302001429号   粤ICP备18155646号-1 |网站地图