专注4K家庭影音, 服务千万家庭影音发烧友!
手机版
访问手机版

在线
客服

Hao4K影音在线客服服务时间: 9:00-24:00

选择下列客服马上在线沟通:

快速
发帖

关注
微信

关注微信二维码
顶部

哈桑·明哈杰:返校之王4k Hasan.Minhaj.Homecoming.King.2017.2160p.NF.WEBRip.x265.10bit.SDR.DD5.1脱口秀

[复制链接]
小板凳 发表于 2019-10-20 09:50:21 | 显示全部楼层 |阅读模式 打印 上一主题 下一主题
电影频道
电影封面:
片  名: 哈桑·明哈杰:返校之王4k
电影分类: 喜剧   
国  家: 美国   
年  代: 2017    
分 辨 率: 4K(3840x2160)    
电影格式: MKV|REMUX   
画质标准: 其他 
音质编码: Dolby Digital Audio    
电影声道: 5.1声道    
电影语言: 英文原版     
资源大小: 8.30 GB
导  演: Christopher Storer
豆瓣评分: 8.2 分
中文字幕: -
剧情简介: 在这部单口喜剧特辑中,《每日秀》喜剧演员哈桑·明哈杰现身说法,与你分享种族主义、移民家长和舞会惊魂夜等各色话题。
 
本帖最后由 小板凳 于 2019年10月20日 09:58 编辑

哈桑·明哈吉:衣锦还乡/哈桑·明哈杰:返校之王4k Hasan.Minhaj.Homecoming.King.2017.2160p.NF.WEBRip.x265.10bit.SDR.DD5.1 4k脱口秀信息
  1. Video
  2. ID : 1
  3. Format : HEVC
  4. Format/Info : High Efficiency Video Coding
  5. Format profile : Main 10@L5@Main
  6. Codec ID : V_MPEGH/ISO/HEVC
  7. Duration : 1 h 12 min
  8. Bit rate : 15.7 Mb/s
  9. Width : 3 840 pixels
  10. Height : 2 160 pixels
  11. Display aspect ratio : 16:9
  12. Frame rate mode : Constant
  13. Frame rate : 23.976 (24000/1001) FPS
  14. Color space : YUV
  15. Chroma subsampling : 4:2:0
  16. Bit depth : 10 bits
  17. Bits/(Pixel*Frame) : 0.079
  18. Stream size : 7.94 GiB (96%)
  19. Default : Yes
  20. Forced : No
  21. Color range : Limited
  22. Color primaries : BT.709
  23. Transfer characteristics : BT.709
  24. Matrix coefficients : BT.709
  25. Statistics Tags Issue : mkvmerge v8.3.0 (\'Over the Horizon\') 32bit 2017-05-25 02:31:05 / mkvmerge v8.3.0 (\'Over the Horizon\') 32bit 2017-05-25 02:31:05 / UTC 2017-04-11 01:06:48
  26. FromStats_BitRate : 15978897
  27. FromStats_Duration : 01:12:38.563000000
  28. FromStats_FrameCount : 104501
  29. FromStats_StreamSize : 8705628969

  30. Audio
  31. ID : 2
  32. Format : AC-3
  33. Format/Info : Audio Coding 3
  34. Commercial name : Dolby Digital
  35. Codec ID : A_AC3
  36. Duration : 1 h 12 min
  37. Bit rate mode : Constant
  38. Bit rate : 384 kb/s
  39. Channel(s) : 6 channels
  40. Channel layout : L R C LFE Ls Rs
  41. Sampling rate : 48.0 kHz
  42. Frame rate : 31.250 FPS (1536 SPF)
  43. Bit depth : 16 bits
  44. Compression mode : Lossy
  45. Stream size : 200 MiB (2%)
  46. Language : English
  47. Service kind : Complete Main
  48. Default : Yes
  49. Forced : No
  50. Encoded date : UTC 2017-04-11 01:06:48
  51. Statistics Tags Issue : mkvmerge v8.3.0 (\'Over the Horizon\') 32bit 2017-05-25 02:31:05 / mkvmerge v8.3.0 (\'Over the Horizon\') 32bit 2017-05-25 02:31:05 / UTC 2017-04-11 01:06:48
  52. FromStats_BitRate : 384000
  53. FromStats_Duration : 01:12:39.200000000
  54. FromStats_FrameCount : 136225
  55. FromStats_StreamSize : 209241600
复制代码

哈桑·明哈吉:衣锦还乡/哈桑·明哈杰:返校之王4k Hasan.Minhaj.Homecoming.King.2017.2160p.NF.WEBRip.x265.10bit.SDR.DD5.1 4k脱口秀下载
哈桑·明哈杰:返校之王4k Hasan.Minhaj.Homecoming.King.2017.2160p.NF.WEBRip.x265.10bit.SDR.DD5.1【8.30 GB】
[Hao4k]哈桑·明哈杰:返校之王4k Hasan.Minhaj.Homecoming.King.2017.2160p.NF.WEBRi.torrent
(附件大小: 42.11 KB   资源售价: 2 K币)
回复

使用道具 举报

 

精彩评论8

倒序浏览
yxp18 发表于 5 天前 | 显示全部楼层
 
谢谢分享,好电影
回复 支持 反对

使用道具 举报

 
leopold927 发表于 2019-10-25 11:30:37 | 显示全部楼层
 
谢谢分享电影
回复 支持 反对

使用道具 举报

 
wwchen1980 发表于 2019-10-21 12:34:36 来自手机 | 显示全部楼层
 
感谢楼主分享好东东!
回复 支持 反对

使用道具 举报

 
yxp18 发表于 2019-10-21 09:51:45 | 显示全部楼层
 
谢谢分享,好东西
回复 支持 反对

使用道具 举报

 
QQ_5B4CAB 发表于 2019-10-21 00:45:00 来自手机 | 显示全部楼层
 
感谢楼主分享
回复 支持 反对

使用道具 举报

 
xiuyanzhang 发表于 2019-10-20 20:52:07 | 显示全部楼层
 
多谢楼主的分享!
回复 支持 反对

使用道具 举报

 
南山风暴 发表于 2019-10-20 18:50:13 来自手机 | 显示全部楼层
 
感受分享,感谢分享。
回复 支持 反对

使用道具 举报

 
adansxing 发表于 2019-10-20 10:51:00 来自手机 | 显示全部楼层
 
网飞流媒体版本
回复 支持 反对

使用道具 举报

 
您需要登录后才可以回帖 登录 | 立即注册

本版积分规则


0关注

3粉丝

15帖子

排行榜
作者专栏

关注微信公众号第一时间推送精彩

官方微信

手机访问

Hao4K影音

专注4k庭影音,提供家庭影音社区、家庭影音器材库、影音问答平台、影音商城服务家庭影音用户。

本站内容部分由用户自主分享和转载自互联网,转载目的在于传递更多信息,并不代表本网赞同其观点和对其真实性负责。

如有侵权、违反国家法律政策行为,请联系我们,我们会第一时间及时清除和处理!

举报反馈邮箱:admin@hao4k.cn

Copyright   ©2016-2019  Hao4K影音Powered by©Hao4K 粤公网安备 44030302001429号   粤ICP备18155646号-1 |网站地图