专注4K家庭影音, 服务千万家庭影音发烧友!
手机版
访问手机版

在线
客服

Hao4K影音在线客服服务时间: 9:00-24:00

选择下列客服马上在线沟通:

快速
发帖

关注
微信

关注微信二维码
顶部

[4K 美剧] 幻灭 第一季4k Disenchantment.S01.2160p.NF.WEBRip.DDP5.1.x265电视剧

[复制链接]
大红色 发表于 2019-10-21 20:25:56 | 显示全部楼层 |阅读模式 打印 上一主题 下一主题
电视剧频道
电视剧封面:
电视剧名: 幻灭 第一季4k
年  代: 2018  
国  家: 美国
类  别: 冒险 奇幻 动画 
语  言: 英语
字  幕: 英文原版
上映日期: 2018-08-17
文件格式: mkv    
视频效果: 4K(3840x2160)    
资源大小: 51.18 GB
片  长: 30 分钟
导  演: 韦斯利·阿彻 / 皮特·阿凡季诺
剧情简介: 《幻灭》是一部由马特·格罗宁带来的成人奇幻动画喜剧剧集,全部 10 集已于 2018 年 8 月 17 日在 Netflix 上线。《幻灭》将带观众前往分崩离析的中世纪王国“梦之国”,跟随贪杯的年轻公主豆豆、顽皮活跃的精灵伙伴艾福和她的恶魔卢奇展开一段惊险之旅。一路上,奇怪三人组将遇见食人魔、精灵、女妖、小魔鬼、巨怪、海象和许多愚蠢人类。
  本剧集的配音演员包括艾比·雅各布森(“豆豆”)、埃里克·安德烈(“卢奇”)和纳特·法克森(“艾福”),以及约翰·迪玛吉欧、比利·维斯特、莫里斯·拉马奇、崔丝·麦妮利、大卫·赫尔曼、马特·贝里、珍妮·巴滕、瑞奇·富尔切尔、诺尔·费丁和露西·蒙哥马利。
 
崩坏梦王国(台) / 祛魅/幻灭 第一季4k Disenchantment.S01.2160p.NF.WEBRip.DDP5.1.x265电视剧信息
  1. Video
  2. ID : 1
  3. Format : HEVC
  4. Format/Info : High Efficiency Video Coding
  5. Format profile : Main 10@L5@Main
  6. Codec ID : V_MPEGH/ISO/HEVC
  7. Duration : 36 min 10 s
  8. Bit rate : 17.3 Mb/s
  9. Width : 3 840 pixels
  10. Height : 2 160 pixels
  11. Display aspect ratio : 16:9
  12. Frame rate mode : Constant
  13. Frame rate : 23.976 (24000/1001) FPS
  14. Color space : YUV
  15. Chroma subsampling : 4:2:0
  16. Bit depth : 10 bits
  17. Bits/(Pixel*Frame) : 0.087
  18. Stream size : 4.37 GiB (95%)
  19. Writing library : x265 2.8+66-88ee12651e30:[Windows][MSVC 1915][64 bit] 10bit
  20. Encoding settings : cpuid=1111039 / frame-threads=4 / numa-pools=28,0 / wpp / no-pmode / no-pme / no-psnr / no-ssim / log-level=2 / input-csp=1 / input-res=3840x2160 / interlace=0 / total-frames=0 / level-idc=0 / high-tier=1 / uhd-bd=0 / ref=5 / no-allow-non-conformance / no-repeat-headers / annexb / no-aud / no-hrd / info / hash=0 / no-temporal-layers / open-gop / min-keyint=23 / keyint=250 / gop-lookahead=0 / bframes=8 / b-adapt=2 / b-pyramid / bframe-bias=0 / rc-lookahead=40 / lookahead-slices=0 / scenecut=40 / radl=0 / no-intra-refresh / ctu=64 / min-cu-size=8 / no-rect / no-amp / max-tu-size=32 / tu-inter-depth=3 / tu-intra-depth=3 / limit-tu=4 / rdoq-level=2 / dynamic-rd=0.00 / no-ssim-rd / signhide / no-tskip / nr-intra=0 / nr-inter=0 / no-constrained-intra / strong-intra-smoothing / max-merge=4 / limit-refs=1 / limit-modes / me=3 / subme=4 / merange=57 / temporal-mvp / weightp / weightb / no-analyze-src-pics / deblock=0:0 / sao / no-sao-non-deblock / rd=6 / no-early-skip / rskip / no-fast-intra / no-tskip-fast / no-cu-lossless / b-intra / no-splitrd-skip / rdpenalty=0 / psy-rd=2.00 / psy-rdoq=1.00 / no-rd-refine / no-lossless / cbqpoffs=0 / crqpoffs=0 / rc=crf / crf=14.0 / qcomp=0.60 / qpstep=4 / stats-write=0 / stats-read=0 / ipratio=1.40 / pbratio=1.30 / aq-mode=1 / aq-strength=1.00 / cutree / zone-count=0 / no-strict-cbr / qg-size=32 / no-rc-grain / qpmax=69 / qpmin=0 / no-const-vbv / sar=0 / overscan=0 / videoformat=5 / range=0 / colorprim=2 / transfer=2 / colormatrix=2 / chromaloc=0 / display-window=0 / max-cll=0,0 / min-luma=0 / max-luma=1023 / log2-max-poc-lsb=8 / vui-timing-info / vui-hrd-info / slices=1 / no-opt-qp-pps / no-opt-ref-list-length-pps / no-multi-pass-opt-rps / scenecut-bias=0.05 / no-opt-cu-delta-qp / no-aq-motion / no-hdr / no-hdr-opt / no-dhdr10-opt / no-idr-recovery-sei / analysis-reuse-level=5 / scale-factor=0 / refine-intra=0 / refine-inter=0 / refine-mv=0 / limit-sao / ctu-info=0 / no-lowpass-dct / refine-mv-type=0 / copy-pic=1 / max-ausize-factor=1.0 / no-dynamic-refine / no-single-sei
  21. Default : Yes
  22. Forced : No

  23. Audio
  24. ID : 2
  25. Format : E-AC-3
  26. Format/Info : Enhanced AC-3
  27. Commercial name : Dolby Digital Plus
  28. Codec ID : A_EAC3
  29. Duration : 36 min 10 s
  30. Bit rate mode : Constant
  31. Bit rate : 640 kb/s
  32. Channel(s) : 6 channels
  33. Channel layout : L R C LFE Ls Rs
  34. Sampling rate : 48.0 kHz
  35. Frame rate : 31.250 FPS (1536 SPF)
  36. Compression mode : Lossy
  37. Stream size : 166 MiB (3%)
  38. Language : English
  39. Service kind : Complete Main
  40. Default : Yes
  41. Forced : No
  42. Encoded date : UTC 2018-08-03 05:07:40
复制代码

崩坏梦王国(台) / 祛魅/幻灭 第一季4k Disenchantment.S01.2160p.NF.WEBRip.DDP5.1.x265电视剧下载
幻灭 第一季4k Disenchantment.S01.2160p.NF.WEBRip.DDP5.1.x265【51.18 GB】
幻灭 第一季4k Disenchantment.S01.2160p.NF.WEBRip.DDP5.1.x265-TrollUHD[rartv].torrent
(附件大小: 130.27 KB  )
标签:幻灭电视剧
回复

使用道具 举报

 

精彩评论2

倒序浏览
天衣派 发表于 2019-10-24 14:18:31 | 显示全部楼层
 
怎么有20集?不是只有10集吗?
回复 支持 反对

使用道具 举报

 
gunner 发表于 2019-10-21 23:02:01 | 显示全部楼层
 
啥玩应呀
回复 支持 反对

使用道具 举报

 
您需要登录后才可以回帖 登录 | 立即注册

本版积分规则


0关注

0粉丝

36帖子

排行榜
作者专栏

关注微信公众号第一时间推送精彩

官方微信

手机访问

Hao4K影音

专注4k庭影音,提供家庭影音社区、家庭影音器材库、影音问答平台、影音商城服务家庭影音用户。

本站内容部分由用户自主分享和转载自互联网,转载目的在于传递更多信息,并不代表本网赞同其观点和对其真实性负责。

如有侵权、违反国家法律政策行为,请联系我们,我们会第一时间及时清除和处理!

举报反馈邮箱:admin@hao4k.cn

Copyright   ©2016-2019  Hao4K影音Powered by©Hao4K 粤公网安备 44030302001429号   粤ICP备18155646号-1 |网站地图