专注4K家庭影音, 服务千万家庭影音发烧友!
手机版
访问手机版

在线
客服

Hao4K影音在线客服服务时间: 9:00-24:00

选择下列客服马上在线沟通:

快速
发帖

关注
微信

关注微信二维码
顶部

[4K 美剧] 家有超能迪翁4k Raising.Dion.S01.2160p.NF.WEBRip.x265.10bit.HDR.DDP5.1.Atmos电视剧

[复制链接]
大红色 发表于 2019-10-21 20:35:36 | 显示全部楼层 |阅读模式 打印 上一主题 下一主题
电视剧频道
电视剧封面:
电视剧名: 家有超能迪翁4k
年  代: 2019  
国  家: 美国
类  别: 科幻 剧情 
语  言: 英语
字  幕: 英文原版
上映日期: 2019-10-04
文件格式: mkv    
视频效果: 4K(3840x2160)    
资源大小: 68.59 GB
片  长: 50 分钟
导  演: 塞斯·曼恩
剧情简介: 《家有超能迪翁》讲述了一位名叫妮科尔(阿莉莎·温赖特饰)的女人在丈夫马克(迈克尔·B·乔丹饰)去世后,独自抚养儿子迪翁(新人演员贾赛亚·扬饰)的故事。当迪翁开始表现出一些如同超级英雄般的神秘超能力时,单亲母亲抚养儿子的普通生活也变得不再那么单调。现在,妮科尔必须在马克生前好友帕特(杰森·雷特饰)的帮助下保守儿子具有超能力的保密,保护迪翁不被敌人利用,同时还要搞清儿子超能力的来源。
 
超能男孩的妈妈手记(港) / 超能迪昂(台) / 超能男孩:万能妈妈 / 超能小鬼迪翁 / 抚养迪昂/家有超能迪翁4k Raising.Dion.S01.2160p.NF.WEBRip.x265.10bit.HDR.DDP5.1.Atmos电视剧信息
  1. Video
  2. ID : 1
  3. Format : HEVC
  4. Format/Info : High Efficiency Video Coding
  5. Format profile : Main 10@L5@Main
  6. HDR format : SMPTE ST 2086, HDR10 compatible
  7. Codec ID : V_MPEGH/ISO/HEVC
  8. Duration : 50 min 39 s
  9. Bit rate : 26.8 Mb/s
  10. Width : 3 840 pixels
  11. Height : 1 920 pixels
  12. Display aspect ratio : 2.000
  13. Frame rate mode : Constant
  14. Frame rate : 23.976 (24000/1001) FPS
  15. Color space : YUV
  16. Chroma subsampling : 4:2:0
  17. Bit depth : 10 bits
  18. Bits/(Pixel*Frame) : 0.152
  19. Stream size : 9.48 GiB (95%)
  20. Writing library : x265 3.1_RC1+3-3bdf06e3c628:[Windows][MSVC 1921][64 bit] 10bit
  21. Encoding settings : cpuid=1111039 / frame-threads=4 / numa-pools=28,0 / wpp / no-pmode / no-pme / no-psnr / no-ssim / log-level=2 / input-csp=1 / input-res=3840x1920 / interlace=0 / total-frames=0 / level-idc=0 / high-tier=1 / uhd-bd=0 / ref=5 / no-allow-non-conformance / repeat-headers / annexb / no-aud / no-hrd / info / hash=0 / no-temporal-layers / open-gop / min-keyint=23 / keyint=250 / gop-lookahead=0 / bframes=8 / b-adapt=2 / b-pyramid / bframe-bias=0 / rc-lookahead=40 / lookahead-slices=0 / scenecut=40 / radl=0 / no-splice / no-intra-refresh / ctu=64 / min-cu-size=8 / no-rect / no-amp / max-tu-size=32 / tu-inter-depth=3 / tu-intra-depth=3 / limit-tu=0 / rdoq-level=1 / dynamic-rd=0.00 / no-ssim-rd / signhide / no-tskip / nr-intra=0 / nr-inter=0 / no-constrained-intra / strong-intra-smoothing / max-merge=5 / limit-refs=0 / no-limit-modes / me=3 / subme=4 / merange=57 / temporal-mvp / weightp / weightb / no-analyze-src-pics / deblock=0:0 / no-sao / no-sao-non-deblock / rd=6 / no-early-skip / rskip / no-fast-intra / no-tskip-fast / no-cu-lossless / b-intra / no-splitrd-skip / rdpenalty=0 / psy-rd=4.00 / psy-rdoq=8.00 / no-rd-refine / no-lossless / cbqpoffs=0 / crqpoffs=0 / rc=crf / crf=14.0 / qcomp=0.60 / qpstep=4 / stats-write=0 / stats-read=0 / ipratio=1.40 / pbratio=1.30 / aq-mode=2 / aq-strength=1.00 / cutree / zone-count=0 / no-strict-cbr / qg-size=32 / no-rc-grain / qpmax=69 / qpmin=0 / no-const-vbv / sar=0 / overscan=0 / videoformat=5 / range=0 / colorprim=9 / transfer=16 / colormatrix=9 / chromaloc=0 / display-window=0 / master-display=G(13250,34500)B(7500,3000)R(34000,16000)WP(15635,16450)L(10000000,0)cll=1187,388 / min-luma=0 / max-luma=1023 / log2-max-poc-lsb=8 / vui-timing-info / vui-hrd-info / slices=1 / no-opt-qp-pps / no-opt-ref-list-length-pps / no-multi-pass-opt-rps / scenecut-bias=0.05 / no-opt-cu-delta-qp / no-aq-motion / hdr / hdr-opt / no-dhdr10-opt / no-idr-recovery-sei / analysis-reuse-level=5 / scale-factor=0 / refine-intra=0 / refine-inter=0 / refine-mv=0 / refine-ctu-distortion=0 / no-limit-sao / ctu-info=0 / no-lowpass-dct / refine-analysis-type=0 / copy-pic=1 / max-ausize-factor=1.0 / no-dynamic-refine / no-single-sei / no-hevc-aq / no-svt / no-field / qp-adaptation-range=1.00
  22. Default : Yes
  23. Forced : No
  24. Color range : Limited
  25. Color primaries : BT.2020
  26. Transfer characteristics : PQ
  27. Matrix coefficients : BT.2020 non-constant
  28. Mastering display color primaries : Display P3
  29. Mastering display luminance : min: 0.0000 cd/m2, max: 1000 cd/m2
  30. Maximum Content Light Level : 1187 cd/m2
  31. Maximum Frame-Average Light Level : 388 cd/m2

  32. Audio
  33. ID : 2
  34. Format : E-AC-3 JOC
  35. Format/Info : Enhanced AC-3 with Joint Object Coding
  36. Commercial name : Dolby Digital Plus with Dolby Atmos
  37. Codec ID : A_EAC3
  38. Duration : 50 min 39 s
  39. Bit rate mode : Constant
  40. Bit rate : 768 kb/s
  41. Channel(s) : 6 channels
  42. Channel layout : L R C LFE Ls Rs
  43. Sampling rate : 48.0 kHz
  44. Frame rate : 31.250 FPS (1536 SPF)
  45. Compression mode : Lossy
  46. Stream size : 278 MiB (3%)
  47. Title : English
  48. Language : English
  49. Service kind : Complete Main
  50. Default : Yes
  51. Forced : No
  52. Complexity index : 16
  53. Number of dynamic objects : 15
  54. Bed channel count : 1 channel
  55. Bed channel configuration : LFE
复制代码

超能男孩的妈妈手记(港) / 超能迪昂(台) / 超能男孩:万能妈妈 / 超能小鬼迪翁 / 抚养迪昂/家有超能迪翁4k Raising.Dion.S01.2160p.NF.WEBRip.x265.10bit.HDR.DDP5.1.Atmos电视剧下载
家有超能迪翁4k Raising.Dion.S01.2160p.NF.WEBRip.x265.10bit.HDR.DDP5.1.Atmos【68.59GB】
家有超能迪翁4k Raising.Dion.S01.2160p.NF.WEBRip.x265.10bit.HDR.DDP5.1.Atmos-Trol.torrent
(附件大小: 172.88 KB  )
回复

使用道具 举报

 

精彩评论5

倒序浏览
exboyfriend 发表于 2019-11-10 23:04:08 | 显示全部楼层
 
看起来不错啊!
回复 支持 反对

使用道具 举报

 
funnies 发表于 2019-10-28 15:18:10 | 显示全部楼层
 
喜欢的剧!多谢分享!
回复 支持 反对

使用道具 举报

 
kelann 发表于 2019-10-26 13:37:38 | 显示全部楼层
 
好看吗。看着海报挺吓人的。
回复 支持 反对

使用道具 举报

 
娃娃爱吃鱼 发表于 2019-10-23 04:34:15 | 显示全部楼层
 
看海报很厉害的感觉
回复 支持 反对

使用道具 举报

 
Tryst 发表于 2019-10-22 11:05:30 来自手机 | 显示全部楼层
 
高手云集 果断围观
回复 支持 反对

使用道具 举报

 
您需要登录后才可以回帖 登录 | 立即注册

本版积分规则


0关注

0粉丝

40帖子

排行榜
作者专栏

关注微信公众号第一时间推送精彩

官方微信

手机访问

Hao4K影音

专注4k庭影音,提供家庭影音社区、家庭影音器材库、影音问答平台、影音商城服务家庭影音用户。

本站内容部分由用户自主分享和转载自互联网,转载目的在于传递更多信息,并不代表本网赞同其观点和对其真实性负责。

如有侵权、违反国家法律政策行为,请联系我们,我们会第一时间及时清除和处理!

举报反馈邮箱:admin@hao4k.cn

Copyright   ©2016-2019  Hao4K影音Powered by©Hao4K 粤公网安备 44030302001429号   粤ICP备18155646号-1 |网站地图