专注4K家庭影音, 服务千万家庭影音发烧友!
手机版
访问手机版

在线
客服

Hao4K影音在线客服服务时间: 9:00-24:00

选择下列客服马上在线沟通:

快速
发帖

关注
微信

关注微信二维码
顶部

[播放相关] 请问一个dts格式的问题?

[复制链接]
tess1199 发表于 2019-10-27 19:40:18 | 显示全部楼层 |阅读模式 打印 上一主题 下一主题
 
本帖最后由 tess1199 于 2019年10月27日 20:59 编辑
1 t/ f" i) y' r- G) O5 M' [% ?/ H6 g
我的音箱是5.1声道的雅马哈,平时播放这种:, V0 N0 D5 a2 b+ G6 ]
Audio+ J  _7 o( S' a, C0 y4 J
ID : 2
8 S% ?0 r  o4 t* R; C3 aFormat : DTS0 A( j9 x# m+ k: F* t: d* t5 q& R& A
Format/Info : Digital Theater Systems( G# }5 x1 C% P* \/ F& {' E4 Z
Codec ID : A_DTS9 q% G7 r3 g7 O9 \7 D
Duration : 1 h 36 min$ W: Q! s- b2 E3 G$ }% N
Bit rate mode : Constant
8 W- M. j1 A8 @7 j% vBit rate : 1 509 kb/s0 c  A" s* i5 k2 V
Channel(s) : 6 channels+ g1 z. E; d2 N+ [
Channel layout : C L R Ls Rs LFE
; C( w$ [9 g: d1 J/ I! \Sampling rate : 48.0 kHz
! l1 {# m) L" B; u$ iFrame rate : 93.750 FPS (512 SPF)
, v% G; |( ]( Q" E' U- C8 U3 DBit depth : 24 bits' V( k3 C  m- C! n; E2 G: S
Compression mode : Lossy$ t% G) T- l' q! B& [
Stream size : 1.02 GiB (19%)
+ j% S9 ?; {+ ~( F* R; G$ T* aLanguage : English; j4 }$ f3 l. O" j' A
Default : Yes
8 u+ o# U. b7 f2 UForced : No
- z  {1 |* v# E) G1 D
6 X  S7 p8 f: y* j& ^0 K1 Q( |5 W6 T) K# W1 I- z1 q) W- K; l8 }0 t5 w: J0 F
- U5 r5 s# R5 [1 F6 ^1 y8 E
為什么下邊這個顯示Channel(s) : 8 channels / 6 channels  和  Bit rate : 4 687 kb/s / 1 509 kb/s! I" m: F8 `( b3 a. I
這是dts hd-ma和dts 兩條音軌合并到一起了?
( t0 I* D( w8 K4 ?( N! Z7 k那我播放的時候會播放哪個啊?
9 R( K( z0 }) u; B" P% Z- k
% }! O% g. J$ x6 N3 J. vAudio #20 D# K7 y7 y# r1 t1 H
ID : 30 F$ @/ U6 F1 ~
Format : DTS
; j. U1 `( O; e, g! lFormat/Info : Digital Theater Systems; v7 y/ B& E: {
Format profile : MA / Core
) U9 H- a: E" x6 \# y; J- kCodec ID : A_DTS
/ ?4 V& l: F0 ZDuration : 2 h 0 min
5 A: }$ S! S5 x& a! F& g4 N8 sBit rate mode : Variable / Constant
3 a2 D1 x: h- ~. lBit rate : 4 687 kb/s / 1 509 kb/s$ e/ j7 E. T$ s/ M% W
Channel(s) : 8 channels / 6 channels
$ h; f9 b  J" IChannel positions : Front: L C R, Side: L R, Back: L R, LFE / Front: L C R, Side: L R, LFE. R  Q2 L- @9 E) v
Sampling rate : 48.0 kHz5 q1 ~2 p0 p3 h9 t9 F  h
Frame rate : 93.750 FPS (512 SPF)
4 I) I+ Q) m! j' h6 B; `- c6 |Bit depth : 24 bits
/ W0 a% e! V5 U+ n* g. i$ r9 uCompression mode : Lossless / Lossy
. t( E& S& ]* V, IStream size : 3.94 GiB (10%), e7 k* S$ [1 f  n: P; D) ]
Title : Mad.Max.Fury.Road.2015.2160p.BluRay.x265.10bit.SDR.DTS-HD.MA.TrueHD.7.1.Atmos-SWTYBLZ
4 y# S# y- L% z! Y4 H/ ^# YLanguage : English4 g" [8 `# J0 Q3 P# u' ?
Default : No! S# L& Q6 K( o" i: Q6 U
Forced : No
" h2 ?9 f& }0 u
) }( M8 v2 w0 z" y) P  C( C. p; I+ Y6 ]4 B! b& b. G
# u! c8 Z) b9 C
回复

使用道具 举报

 

精彩评论9

倒序浏览
tess1199 发表于 2019-11-1 16:10:22 | 显示全部楼层
 
我比想象中勇敢 发表于 2019年11月1日 11:19
- Z; n: R; R3 J- B3 W4 n& s: [$ k) W: [自己在论坛里面多找找吧,这些问题论坛好像都有教程的!
! s9 O# K* H$ q
有么? 别整天好像,想当然, 说些没用的!!!
回复 支持 反对

使用道具 举报

 
 楼主| 我比想象中勇敢 发表于 2019-11-1 11:19:52 | 显示全部楼层
 
自己在论坛里面多找找吧,这些问题论坛好像都有教程的!
回复 支持 反对

使用道具 举报

 
tess1199 发表于 2019-10-28 09:31:59 | 显示全部楼层
 
qiaomizi 发表于 2019年10月28日 00:51
+ Y: U2 Z, R- u4 R5 {这应该是为了兼容5.1老设备能播放电影用的。不要人工选,解码器会自动选。支持7.1音轨的解码器,就会使用7. ...
: x7 s# W8 p2 S% s
好的,多謝, 我試試
回复 支持 反对

使用道具 举报

 
 楼主| qiaomizi 发表于 2019-10-28 00:51:52 | 显示全部楼层
 
这应该是为了兼容5.1老设备能播放电影用的。不要人工选,解码器会自动选。支持7.1音轨的解码器,就会使用7.1声道,不支持的就用5.1声道。
回复 支持 反对

使用道具 举报

 
王小波 发表于 2019-10-27 21:06:11 | 显示全部楼层
 
tess1199 发表于 2019年10月27日 20:59
9 W" x; X5 U0 q& z" O1 q能不能看懂这俩音轨的不同?
4 g0 p. m: M' ]) |' t9 m. f/ H我是问第二个音轨比较特殊, 这个播放的时候是怎么处理的?
4 t1 m* o1 _, v% T+ }6 V
那就弄不懂了,你就只有等站里的大神来帮你了
回复 支持 反对

使用道具 举报

 
tess1199 发表于 2019-10-27 20:59:56 | 显示全部楼层
 
王小波 发表于 2019年10月27日 20:46/ M6 q+ V# e  L& G
你用的是啥子播放器,播放器里面可以选音轨啊。

* a3 ^8 P$ B! f+ y6 R能不能看懂这俩音轨的不同?% B3 O( n0 D- p. R5 I
我是问第二个音轨比较特殊, 这个播放的时候是怎么处理的?
回复 支持 反对

使用道具 举报

 
 楼主| 王小波 发表于 2019-10-27 20:46:50 | 显示全部楼层
 
tess1199 发表于 2019年10月27日 20:189 N: S- Y* ~' v4 [0 T4 N
我是5.1的音箱, 下边那个5.1和7.1合到一齐的 dts是怎么放的?

, j6 G* Q; a2 y& x. N) B你用的是啥子播放器,播放器里面可以选音轨啊。
回复 支持 反对

使用道具 举报

 
tess1199 发表于 2019-10-27 20:18:47 | 显示全部楼层
 
王小波 发表于 2019年10月27日 20:08& \) b6 k# V, `# K1 Z6 S
你是老功放这个TrueHD.7.1音轨也只能解码成AC-3  5.1,  DTS-HD7.1音轨也只能解码成DTS  5.1,要是新功放就可 ...
  S$ n% [1 \! ^$ l/ v  t
我是5.1的音箱, 下边那个5.1和7.1合到一齐的 dts是怎么放的?
回复 支持 反对

使用道具 举报

 
 楼主| 王小波 发表于 2019-10-27 20:08:49 | 显示全部楼层
 
本帖最后由 王小波 于 2019年10月27日 20:09 编辑 / n) f# {7 `* F+ \" k1 F# q, Q
  |* M) V4 L4 g) P' ?1 s1 X7 {
你是老功放这个TrueHD.7.1音轨也只能解码成AC-3  5.1,  DTS-HD7.1音轨也只能解码成DTS  5.1,要是新功放就可以全部解码成  7.1音轨。
回复 支持 反对

使用道具 举报

 
您需要登录后才可以回帖 登录 | 立即注册

本版积分规则


0关注

0粉丝

4帖子

排行榜
作者专栏

关注微信公众号第一时间推送精彩

官方微信

手机访问

Hao4K影音

专注4k庭影音,提供家庭影音社区、家庭影音器材库、影音问答平台、影音商城服务家庭影音用户。

本站内容部分由用户自主分享和转载自互联网,转载目的在于传递更多信息,并不代表本网赞同其观点和对其真实性负责。

如有侵权、违反国家法律政策行为,请联系我们,我们会第一时间及时清除和处理!

举报反馈邮箱:admin@hao4k.cn

Copyright   ©2016-2019  Hao4K影音Powered by©Hao4K 粤公网安备 44030302001429号   粤ICP备18155646号-1 |网站地图