专注4K家庭影音, 服务千万家庭影音发烧友!

在线
客服

QQ咨询服务时间: 9:00-21:00

选择下列客服马上在线沟通:

快速
发帖

暂无
7*24小时客服服务热线

关注
微信

顶部

[播放相关] 请问一个dts格式的问题?

[复制链接]
tess1199 发表于 2019-10-27 19:40:18 | 显示全部楼层 |阅读模式 打印 上一主题 下一主题
本帖最后由 tess1199 于 2019年10月27日 20:59 编辑
$ e) \# B" [6 C/ q! Y( N: s* |! S
3 T- X5 e6 R' o" w我的音箱是5.1声道的雅马哈,平时播放这种:$ d* [5 M; Q' n) e9 m8 q
Audio5 @2 h5 F3 X  d& ?8 {  a
ID : 2" B9 D/ X0 ~; a4 a
Format : DTS" j% E+ D& o" @4 U4 L
Format/Info : Digital Theater Systems& B! `4 A" d9 R; c, {+ b2 O
Codec ID : A_DTS+ P% m/ [$ B5 e( F+ s
Duration : 1 h 36 min4 a1 I/ i( C# U+ k3 F2 `$ j* j
Bit rate mode : Constant' [+ _0 C* q1 o( W3 }; |. J
Bit rate : 1 509 kb/s
1 K! c! p5 ?5 p) s  iChannel(s) : 6 channels9 R9 ^; A3 T' v8 A; k" }
Channel layout : C L R Ls Rs LFE: a4 B2 ~( G+ n# N! o: y, F
Sampling rate : 48.0 kHz
& C7 E3 d. a6 N- [& k3 |/ N* ]) jFrame rate : 93.750 FPS (512 SPF)
* s* x0 v: b/ p. {+ }  I  a  ^Bit depth : 24 bits
: m: I; d, P! c' q* X. Y" h2 @( gCompression mode : Lossy- F3 q8 l5 j1 z$ Z* u
Stream size : 1.02 GiB (19%)6 J* w4 H% [, M  r/ a
Language : English
0 y+ x! j7 w2 d: }+ ~/ I) KDefault : Yes, D. w; X" _4 O4 R2 y! _; c
Forced : No
' e. n. w) R+ {4 p* j( z
1 `% v( Y6 E( h* K
3 ^+ @& p# s/ L- r5 _7 K; @1 r* u. x0 @# j5 d. I! w; E; G7 }
為什么下邊這個顯示Channel(s) : 8 channels / 6 channels  和  Bit rate : 4 687 kb/s / 1 509 kb/s
, G" u# C; K% t- w) H' l這是dts hd-ma和dts 兩條音軌合并到一起了?
6 t( r* w. t+ S  s* C那我播放的時候會播放哪個啊?
  \# ~1 ~& S+ H$ \1 R
3 r# c/ X, B' R  C# ~1 l6 UAudio #2
- }! r- @! O6 K5 JID : 3$ b5 b7 R+ q5 Y& D  i4 A2 t9 g
Format : DTS
$ ]4 P) E. j- u" s5 y2 {Format/Info : Digital Theater Systems* H( |# \, s2 R; a3 C
Format profile : MA / Core
; A# B7 g# X' Y, W- g! A. m. `Codec ID : A_DTS% ~: ]" z9 x! N& ~/ s4 @- e& r
Duration : 2 h 0 min  l2 |) S& O' N) M2 e; h' h
Bit rate mode : Variable / Constant2 x% \4 g# R1 r5 T4 n
Bit rate : 4 687 kb/s / 1 509 kb/s
: X- M  m- W8 _& _+ L; WChannel(s) : 8 channels / 6 channels
# x  K) i% v9 y5 C+ `* J- f2 j+ XChannel positions : Front: L C R, Side: L R, Back: L R, LFE / Front: L C R, Side: L R, LFE
; H1 |  H$ B0 M9 ?5 [Sampling rate : 48.0 kHz% \+ i' h3 ]9 T; u, V' f
Frame rate : 93.750 FPS (512 SPF)
1 Q0 B; V6 N; u6 e) _- YBit depth : 24 bits; M! l9 l/ h5 W. h9 m- t
Compression mode : Lossless / Lossy
: n& J- o7 S1 S- T7 ?Stream size : 3.94 GiB (10%)
! F3 i5 Q9 k( J" Q0 L) l) d# UTitle : Mad.Max.Fury.Road.2015.2160p.BluRay.x265.10bit.SDR.DTS-HD.MA.TrueHD.7.1.Atmos-SWTYBLZ  g- F: X! F' V6 ]( D+ y% Z
Language : English
9 y0 k! @( g/ @1 s+ U0 UDefault : No
* E3 K; S3 n6 I7 BForced : No
. f/ m6 n0 y( n- Y
& P6 ~/ z4 [2 B; T4 c% n
' s* |- O, w8 o8 f5 X( G
+ V2 n8 ]: D' W: o& [
回复

使用道具 举报

 

精彩评论10

倒序浏览
我比想象中勇敢 发表于 2019-11-1 11:19:52 | 显示全部楼层
自己在论坛里面多找找吧,这些问题论坛好像都有教程的!
回复 支持 0 反对 1

使用道具 举报

 
djdavidchen 发表于 2020-4-13 19:56:57 | 显示全部楼层
播放器里面可以选音轨啊
回复 支持 反对

使用道具 举报

 
tess1199 发表于 2019-11-1 16:10:22 | 显示全部楼层
我比想象中勇敢 发表于 2019年11月1日 11:19
% j& _, ]7 a/ B$ w1 u9 m自己在论坛里面多找找吧,这些问题论坛好像都有教程的!
( {* ^, L$ Q) U: o$ D+ C. Q
有么? 别整天好像,想当然, 说些没用的!!!
回复 支持 反对

使用道具 举报

 
 楼主| tess1199 发表于 2019-10-28 09:31:59 | 显示全部楼层
qiaomizi 发表于 2019年10月28日 00:51
* x  H, s4 q+ t4 p% @$ C0 F8 W+ p9 y2 V这应该是为了兼容5.1老设备能播放电影用的。不要人工选,解码器会自动选。支持7.1音轨的解码器,就会使用7. ...
3 ?& |+ y9 A2 y9 x* K: W3 N
好的,多謝, 我試試
回复 支持 反对

使用道具 举报

 
 楼主| qiaomizi 发表于 2019-10-28 00:51:52 | 显示全部楼层
这应该是为了兼容5.1老设备能播放电影用的。不要人工选,解码器会自动选。支持7.1音轨的解码器,就会使用7.1声道,不支持的就用5.1声道。
回复 支持 反对

使用道具 举报

 
王小波 发表于 2019-10-27 21:06:11 | 显示全部楼层
tess1199 发表于 2019年10月27日 20:597 e: A- S( O, O  R0 L) w
能不能看懂这俩音轨的不同?
4 s# @7 b& M7 J3 D( A- O我是问第二个音轨比较特殊, 这个播放的时候是怎么处理的?
. N5 I7 i& s5 Z: _
那就弄不懂了,你就只有等站里的大神来帮你了
回复 支持 反对

使用道具 举报

 
tess1199 发表于 2019-10-27 20:59:56 | 显示全部楼层
王小波 发表于 2019年10月27日 20:469 D8 i* V$ Q2 W7 r: y8 S. g; X
你用的是啥子播放器,播放器里面可以选音轨啊。

9 D+ h4 E9 N0 U1 C* J4 m能不能看懂这俩音轨的不同?
9 {3 r) ^7 p. g2 \; u4 i我是问第二个音轨比较特殊, 这个播放的时候是怎么处理的?
回复 支持 反对

使用道具 举报

 
 楼主| 王小波 发表于 2019-10-27 20:46:50 | 显示全部楼层
tess1199 发表于 2019年10月27日 20:18
; R+ q) d! b' `% G1 ]2 z$ J6 h我是5.1的音箱, 下边那个5.1和7.1合到一齐的 dts是怎么放的?
1 Q- P2 s$ w2 u& S
你用的是啥子播放器,播放器里面可以选音轨啊。
回复 支持 反对

使用道具 举报

 
tess1199 发表于 2019-10-27 20:18:47 | 显示全部楼层
王小波 发表于 2019年10月27日 20:08" [2 P; j& ^  e4 a/ {2 v9 M
你是老功放这个TrueHD.7.1音轨也只能解码成AC-3  5.1,  DTS-HD7.1音轨也只能解码成DTS  5.1,要是新功放就可 ...
" B+ n) f. h' z- q( @) U7 c2 z8 h
我是5.1的音箱, 下边那个5.1和7.1合到一齐的 dts是怎么放的?
回复 支持 反对

使用道具 举报

 
 楼主| 王小波 发表于 2019-10-27 20:08:49 | 显示全部楼层
本帖最后由 王小波 于 2019年10月27日 20:09 编辑 9 p& [# [& a7 n/ ^( |' w, R+ q( n3 V

# G9 K9 B& O7 ?6 i: S) }- ~' ]' d你是老功放这个TrueHD.7.1音轨也只能解码成AC-3  5.1,  DTS-HD7.1音轨也只能解码成DTS  5.1,要是新功放就可以全部解码成  7.1音轨。
回复 支持 反对

使用道具 举报

 
您需要登录后才可以回帖 登录 | 立即注册

本版积分规则


0关注

0粉丝

6帖子

排行榜
社区广告

关注微信公众号第一时间推送精彩

官方微信

手机访问

Hao4K影音

专注4k家庭影音,提供家庭影音社区,家庭影音器材库,影音问答平台,影音商城,服务千万家庭影音用户。

本站内容部分由用户自主分享和转载自互联网,转载目的在于传递更多信息,并不代表本网赞同其观点和对其真实性负责。

如有侵权、违反国家法律政策行为,请联系我们,我们会第一时间及时清除和处理!

举报反馈邮箱:admin@hao4k.cn

Copyright   ©2019-2020  Hao4K影音粤公网安备 44030302001429号     ( 粤ICP备18155646号-1 )|网站地图