专注4K家庭影音, 服务千万家庭影音发烧友!
手机版
访问手机版

在线
客服

Hao4K影音在线客服服务时间: 9:00-24:00

选择下列客服马上在线沟通:

快速
发帖

关注
微信

关注微信二维码
顶部

[4K 美剧] 摩登情爱 第一季4k Modern.Love.S01.2160p.AMZN.WEBRip.DDP5.1.x264电视剧

[复制链接]
大红色 发表于 2019-10-28 10:47:09 | 显示全部楼层 |阅读模式 打印 上一主题 下一主题
电视剧频道
电视剧封面:
电视剧名: 摩登情爱 第一季4k
年  代: 2019  
国  家: 美国
类  别: 喜剧 爱情 
语  言: 英语
字  幕: 英文原版
上映日期: 2019-10-18
文件格式: mkv    
视频效果: 4K(3840x2160)    
资源大小: 84.46 GB
片  长: 30 分钟
导  演: 约翰·卡尼 / 埃米·罗森 / 汤姆·豪尔 / 莎朗·豪根
剧情简介: 一段不寻常的友谊,一位失而复现的旧爱,一桩处在转折点上的婚姻,一场可能不是约会的约会,一个不因循守旧的新家庭——八篇纽约小品,九段“摩登情爱”,演绎当代生活中爱之纷繁复杂,将个中滋味向我们娓娓道来。
  剧集改编自《纽约时报》同名专栏“摩登情爱”,“探索当代人复杂的感情生活,以及爱的痛苦与欢愉。”
 
现代爱情 / 现代之爱/摩登情爱 第一季4k Modern.Love.S01.2160p.AMZN.WEBRip.DDP5.1.x264电影信息
  1. Video
  2. ID : 1
  3. Format : AVC
  4. Format/Info : Advanced Video Codec
  5. Format profile : High@L5.1
  6. Format settings : CABAC / 6 Ref Frames
  7. Format settings, CABAC : Yes
  8. Format settings, Reference frames : 6 frames
  9. Codec ID : V_MPEG4/ISO/AVC
  10. Duration : 35 min 17 s
  11. Bit rate : 49.7 Mb/s
  12. Width : 3 840 pixels
  13. Height : 1 920 pixels
  14. Display aspect ratio : 2.000
  15. Frame rate mode : Constant
  16. Frame rate : 23.976 (24000/1001) FPS
  17. Color space : YUV
  18. Chroma subsampling : 4:2:0
  19. Bit depth : 8 bits
  20. Scan type : Progressive
  21. Bits/(Pixel*Frame) : 0.281
  22. Stream size : 12.2 GiB (99%)
  23. Writing library : x264 core 158 r2984+47 456d10a t_mod_New [0-bit[url=home.php?mod=space&uid=301412]@ALL[/url] X86_64]
  24. Encoding settings : cabac=1 / ref=6 / deblock=1:-3:-3 / analyse=0x3:0x133 / me=umh / subme=10 / psy=1 / fade_compensate=0.00 / psy_rd=1.00:0.15 / mixed_ref=1 / me_range=48 / chroma_me=1 / trellis=2 / 8x8dct=1 / cqm=0 / deadzone=21,11 / fast_pskip=0 / chroma_qp_offset=-3 / threads=24 / lookahead_threads=4 / sliced_threads=0 / nr=0 / decimate=0 / interlaced=0 / bluray_compat=0 / constrained_intra=0 / fgo=0 / bframes=8 / b_pyramid=2 / b_adapt=2 / b_bias=0 / direct=3 / weightb=1 / open_gop=0 / weightp=2 / keyint=250 / keyint_min=23 / scenecut=40 / intra_refresh=0 / rc=crf / mbtree=0 / crf=18.0000 / qcomp=0.60 / qpmin=0:0:0 / qpmax=69:69:69 / qpstep=4 / ip_ratio=1.30 / pb_ratio=1.20 / aq=3:0.80 / aq-sensitivity=10.00 / aq-factor=1.00:1.00:1.00 / aq2=0 / aq3=0
  25. Language : English
  26. Default : Yes
  27. Forced : No

  28. Audio
  29. ID : 2
  30. Format : E-AC-3
  31. Format/Info : Enhanced AC-3
  32. Commercial name : Dolby Digital Plus
  33. Codec ID : A_EAC3
  34. Duration : 35 min 17 s
  35. Bit rate mode : Constant
  36. Bit rate : 640 kb/s
  37. Channel(s) : 6 channels
  38. Channel layout : L R C LFE Ls Rs
  39. Sampling rate : 48.0 kHz
  40. Frame rate : 31.250 FPS (1536 SPF)
  41. Compression mode : Lossy
  42. Stream size : 162 MiB (1%)
  43. Language : English
  44. Service kind : Complete Main
  45. Default : Yes
  46. Forced : No
复制代码

现代爱情 / 现代之爱/摩登情爱 第一季4k Modern.Love.S01.2160p.AMZN.WEBRip.DDP5.1.x264电影下载
摩登情爱 第一季4k Modern.Love.S01.2160p.AMZN.WEBRip.DDP5.1.x264【84.46 GB】
摩登情爱 第一季4k Modern.Love.S01.2160p.AMZN.WEBRip.DDP5.1.x264-NTb[rartv].torrent
(附件大小: 212.32 KB  )
回复

使用道具 举报

 

精彩评论1

倒序浏览
温柔体贴i 发表于 2019-10-28 11:37:15 | 显示全部楼层
 
沙发???
回复 支持 反对

使用道具 举报

 
您需要登录后才可以回帖 登录 | 立即注册

本版积分规则


0关注

0粉丝

44帖子

排行榜
作者专栏

关注微信公众号第一时间推送精彩

官方微信

手机访问

Hao4K影音

专注4k庭影音,提供家庭影音社区、家庭影音器材库、影音问答平台、影音商城服务家庭影音用户。

本站内容部分由用户自主分享和转载自互联网,转载目的在于传递更多信息,并不代表本网赞同其观点和对其真实性负责。

如有侵权、违反国家法律政策行为,请联系我们,我们会第一时间及时清除和处理!

举报反馈邮箱:admin@hao4k.cn

Copyright   ©2016-2019  Hao4K影音Powered by©Hao4K 粤公网安备 44030302001429号   粤ICP备18155646号-1 |网站地图