专注4K家庭影音, 服务千万家庭影音发烧友!
手机版
访问手机版

在线
客服

Hao4K影音在线客服服务时间: 9:00-24:00

选择下列客服马上在线沟通:

快速
发帖

关注
微信

关注微信二维码
顶部

[4K 美剧] 奇异镇 第一季4k The.Society.S01.2160p.NF.WEBRip.DDP5.1.Atmos.x264电视剧

[复制链接]
大红色 发表于 2019-10-28 10:53:34 | 显示全部楼层 |阅读模式 打印 上一主题 下一主题
电视剧频道
电视剧封面:
电视剧名: 奇异镇 第一季4k
年  代: 2019  
国  家: 美国
类  别: 剧情 悬疑 
语  言: 英语
字  幕: 英文原版
上映日期: 2019-05-10
文件格式: mkv    
视频效果: 4K(3840x2160)    
资源大小: 177.45 GB
片  长: 58 分钟
导  演: 马克·韦布 / 塔拉·妮可·韦尔
剧情简介:  Chris Keyser执笔﹑Marc Webb执导的Netflix新剧集定命为《新社会 The Society》,这部剧被形容为《迷失 Lost》与《苍蝇王 Lord of the Flies》的混合体,讲述一群少年自一次短途旅行后,回到城镇时发现其他人都失踪了,而且主角们还变得无法离开此地。
  Kathryn Newton饰演的女主角Allie,其余演员包括Rachel Keller﹑Gideon Adlon﹑Jacques Colimon﹑Olivia DeJonge﹑Alex Fitzalan﹑Kristine Froseth﹑Jose Julian﹑Natasha Liu Bordizzo﹑Alex MacNicoll﹑Jack Mulhern﹑Salena Qureshi﹑Grace Victoria Cox﹑Sean Berdy及Toby Wallace。
 
平行社会(港) / 新社会(台) / 社会/奇异镇 第一季4k The.Society.S01.2160p.NF.WEBRip.DDP5.1.Atmos.x264电视剧信息
  1. Video
  2. ID : 1
  3. Format : AVC
  4. Format/Info : Advanced Video Codec
  5. Format profile : High@L5.1
  6. Format settings : CABAC / 6 Ref Frames
  7. Format settings, CABAC : Yes
  8. Format settings, Reference frames : 6 frames
  9. Codec ID : V_MPEG4/ISO/AVC
  10. Duration : 1 h 1 min
  11. Bit rate : 44.7 Mb/s
  12. Width : 3 840 pixels
  13. Height : 2 024 pixels
  14. Display aspect ratio : 1.897
  15. Frame rate mode : Constant
  16. Frame rate : 23.976 (24000/1001) FPS
  17. Color space : YUV
  18. Chroma subsampling : 4:2:0
  19. Bit depth : 8 bits
  20. Scan type : Progressive
  21. Bits/(Pixel*Frame) : 0.240
  22. Stream size : 19.1 GiB (98%)
  23. Writing library : x264 core 158 r2984 3759fcb
  24. Encoding settings : cabac=1 / ref=6 / deblock=1:-3:-3 / analyse=0x3:0x133 / me=umh / subme=10 / psy=1 / psy_rd=1.00:0.00 / mixed_ref=1 / me_range=48 / chroma_me=1 / trellis=2 / 8x8dct=1 / cqm=0 / deadzone=21,11 / fast_pskip=0 / chroma_qp_offset=-2 / threads=24 / lookahead_threads=4 / sliced_threads=0 / nr=0 / decimate=0 / interlaced=0 / bluray_compat=0 / constrained_intra=0 / bframes=8 / b_pyramid=2 / b_adapt=2 / b_bias=0 / direct=3 / weightb=1 / open_gop=0 / weightp=2 / keyint=250 / keyint_min=23 / scenecut=40 / intra_refresh=0 / rc=crf / mbtree=0 / crf=19.0 / qcomp=0.60 / qpmin=0 / qpmax=69 / qpstep=4 / ip_ratio=1.30 / pb_ratio=1.20 / aq=3:0.80
  25. Default : Yes
  26. Forced : No

  27. Audio
  28. ID : 2
  29. Format : E-AC-3 JOC
  30. Format/Info : Enhanced AC-3 with Joint Object Coding
  31. Commercial name : Dolby Digital Plus with Dolby Atmos
  32. Codec ID : A_EAC3
  33. Duration : 1 h 1 min
  34. Bit rate mode : Constant
  35. Bit rate : 768 kb/s
  36. Channel(s) : 6 channels
  37. Channel layout : L R C LFE Ls Rs
  38. Sampling rate : 48.0 kHz
  39. Frame rate : 31.250 FPS (1536 SPF)
  40. Compression mode : Lossy
  41. Stream size : 336 MiB (2%)
  42. Title : English
  43. Language : English
  44. Service kind : Complete Main
  45. Default : Yes
  46. Forced : No
  47. Complexity index : 16
  48. Number of dynamic objects : 15
  49. Bed channel count : 1 channel
  50. Bed channel configuration : LFE
复制代码

平行社会(港) / 新社会(台) / 社会/奇异镇 第一季4k The.Society.S01.2160p.NF.WEBRip.DDP5.1.Atmos.x264电视剧下载
奇异镇 第一季4k The.Society.S01.2160p.NF.WEBRip.DDP5.1.Atmos.x264【177.45 GB】
奇异镇 第一季4k The.Society.S01.2160p.NF.WEBRip.DDP5.1.Atmos.x264-AJP69[rartv].torrent
(附件大小: 444.95 KB  )
回复

使用道具 举报

 

精彩评论1

倒序浏览
愈合了心情ヽ 发表于 2019-10-28 12:02:58 来自手机 | 显示全部楼层
 
围观 围观 沙发在哪里!!!
回复 支持 反对

使用道具 举报

 
您需要登录后才可以回帖 登录 | 立即注册

本版积分规则


0关注

0粉丝

36帖子

排行榜
作者专栏

关注微信公众号第一时间推送精彩

官方微信

手机访问

Hao4K影音

专注4k庭影音,提供家庭影音社区、家庭影音器材库、影音问答平台、影音商城服务家庭影音用户。

本站内容部分由用户自主分享和转载自互联网,转载目的在于传递更多信息,并不代表本网赞同其观点和对其真实性负责。

如有侵权、违反国家法律政策行为,请联系我们,我们会第一时间及时清除和处理!

举报反馈邮箱:admin@hao4k.cn

Copyright   ©2016-2019  Hao4K影音Powered by©Hao4K 粤公网安备 44030302001429号   粤ICP备18155646号-1 |网站地图