专注4K家庭影音, 服务千万家庭影音发烧友!
手机版
访问手机版

在线
客服

Hao4K影音在线客服服务时间: 9:00-24:00

选择下列客服马上在线沟通:

快速
发帖

关注
微信

关注微信二维码
顶部

[4k纪录视频] 【搬运贴】第七届世界军人运动会开幕式

[复制链接]
alorn 发表于 2019-10-28 23:11:26 | 显示全部楼层 |阅读模式 打印 上一主题 下一主题
 
不多说了,感谢大神分享。
节目简介:
    第七届世界军人运动会开幕式于2019年10月18日晚在武汉体育中心举行,中共中央总书记、国家主席、中央军委主席习近平出席开幕式并宣布运动会开幕。
    第七届世界军人运动会开幕式总导演为杨笑阳,全程持续约2小时20分钟,包括文艺表演前仪式部分、文艺表演部分、文艺表演后仪式部分。
    第七届世界军人运动会是我国第一次承办的综合性国际军事体育赛事,也是继北京奥运会后我国举办的规模最大的国际体育盛会。来自109个国家的9300余名军体健儿将在江城武汉同场竞技、增进友谊。

下载地址:
https://pan.baidu.com/s/12YwH6pIAMyU2yhNzsEPvBg

General
ID                             : 1 (0x1)
Complete name                  : E:\下载\7th.CISM.Military.World.Games.Opening.Ceremony.20191018.2160p.CCTV-4K.UHDTV.HEVC.10bit.HDR.DD5.1-FLTTH.ts
Format                         : MPEG-TS
File size                      : 36.0 GiB
Duration                       : 2 h 25 min
Overall bit rate mode          : Variable
Overall bit rate               : 35.4 Mb/s

Video
ID                             : 7010 (0x1B62)
Menu ID                        : 701 (0x2BD)
Format                         : HEVC
Format/Info                    : High Efficiency Video Coding
Format profile                 : Main 10@L5@High
Codec ID                       : 36
Duration                       : 2 h 25 min
Bit rate                       : 33.2 Mb/s
Width                          : 3 840 pixels
Height                         : 2 160 pixels
Display aspect ratio           : 16:9
Frame rate                     : 50.000 FPS
Standard                       : Component
Color space                    : YUV
Chroma subsampling             : 4:2:0 (Type 0)
Bit depth                      : 10 bits
Bits/(Pixel*Frame)             : 0.080
Stream size                    : 33.7 GiB (94%)
Color range                    : Limited
Color primaries                : BT.2020
Transfer characteristics       : HLG
Matrix coefficients            : BT.2020 non-constant

Audio
ID                             : 7011 (0x1B63)
Menu ID                        : 701 (0x2BD)
Format                         : AC-3
Format/Info                    : Audio Coding 3
Commercial name                : Dolby Digital
Codec ID                       : 129
Duration                       : 2 h 25 min
Bit rate mode                  : Constant
Bit rate                       : 448 kb/s
Channel(s)                     : 6 channels
Channel layout                 : L R C LFE Ls Rs
Sampling rate                  : 48.0 kHz
Frame rate                     : 31.250 FPS (1536 SPF)
Bit depth                      : 16 bits
Compression mode               : Lossy
Delay relative to video        : -139 ms
Stream size                    : 467 MiB (1%)
Service kind                   : Complete Main


回复

使用道具 举报

 

精彩评论1

倒序浏览
梦醒时分i 发表于 2019-10-29 07:32:59 | 显示全部楼层
 
秀起来~
回复 支持 反对

使用道具 举报

 
您需要登录后才可以回帖 登录 | 立即注册

本版积分规则


0关注

0粉丝

1帖子

排行榜
作者专栏

关注微信公众号第一时间推送精彩

官方微信

手机访问

Hao4K影音

专注4k庭影音,提供家庭影音社区、家庭影音器材库、影音问答平台、影音商城服务家庭影音用户。

本站内容部分由用户自主分享和转载自互联网,转载目的在于传递更多信息,并不代表本网赞同其观点和对其真实性负责。

如有侵权、违反国家法律政策行为,请联系我们,我们会第一时间及时清除和处理!

举报反馈邮箱:admin@hao4k.cn

Copyright   ©2016-2019  Hao4K影音Powered by©Hao4K 粤公网安备 44030302001429号   粤ICP备18155646号-1 |网站地图