专注4K家庭影音, 服务千万家庭影音发烧友!
手机版
访问手机版

在线
客服

Hao4K影音在线客服服务时间: 9:00-24:00

选择下列客服马上在线沟通:

快速
发帖

关注
微信

关注微信二维码
顶部

[4k其他视频] 第七届世界军人运动会开幕式.20191018.2160p.CCTV-4K.UHDTV.ts 36.0G

[复制链接]
xiekang11105 发表于 2019-10-31 11:17:20 | 显示全部楼层 |阅读模式 打印 上一主题 下一主题
 
第七届世界军人运动会开幕式 7th.CISM.Military.World.Games.Opening.Ceremony.20191018.2160p.CCTV-4K.UHDTV.HEVC.10bit.HDR.DD5.1-FLTTH.ts 36.0G
7-1.jpg
7-2.jpg
7-3.jpg
7-4.jpg



第七届世界军人运动会开幕式4K 7th.CISM.Military.World.Games.Opening.Ceremony.20191018.2160p.CCTV-4K.UHDTV.HEVC.10bit.HDR.DD5.1.视频信息
  1. GeneralID                                       : 1 (0x1)
  2. Complete name                            : 7th.CISM.Military.World.Games.Opening.Ceremony.20191018.2160p.CCTV-4K.UHDTV.HEVC.10bit.HDR.DD5.1-FLTTH.ts
  3. Format                                   : MPEG-TS
  4. File size                                : 36.0 GiB
  5. Duration                                 : 2 h 25 min
  6. Overall bit rate mode                    : Variable
  7. Overall bit rate                         : 35.4 Mb/s

  8. Video
  9. ID                                       : 7010 (0x1B62)
  10. Menu ID                                  : 701 (0x2BD)
  11. Format                                   : HEVC
  12. Format/Info                              : High Efficiency Video Coding
  13. Format profile                           : Main 10@L5@High
  14. Codec ID                                 : 36
  15. Duration                                 : 2 h 25 min
  16. Bit rate                                 : 33.2 Mb/s
  17. Width                                    : 3 840 pixels
  18. Height                                   : 2 160 pixels
  19. Display aspect ratio                     : 16:9
  20. Frame rate                               : 50.000 FPS
  21. Standard                                 : Component
  22. Color space                              : YUV
  23. Chroma subsampling                       : 4:2:0 (Type 0)
  24. Bit depth                                : 10 bits
  25. Bits/(Pixel*Frame)                       : 0.080
  26. Stream size                              : 33.7 GiB (94%)
  27. Color range                              : Limited
  28. Color primaries                          : BT.2020
  29. Transfer characteristics                 : HLG
  30. Matrix coefficients                      : BT.2020 non-constant

  31. Audio
  32. ID                                       : 7011 (0x1B63)
  33. Menu ID                                  : 701 (0x2BD)
  34. Format                                   : AC-3
  35. Format/Info                              : Audio Coding 3
  36. Commercial name                          : Dolby Digital
  37. Codec ID                                 : 129
  38. Duration                                 : 2 h 25 min
  39. Bit rate mode                            : Constant
  40. Bit rate                                 : 448 kb/s
  41. Channel(s)                               : 6 channels
  42. Channel layout                           : L R C LFE Ls Rs
  43. Sampling rate                            : 48.0 kHz
  44. Frame rate                               : 31.250 FPS (1536 SPF)
  45. Bit depth                                : 16 bits
  46. Compression mode                         : Lossy
  47. Delay relative to video                  : -139 ms
  48. Stream size                              : 467 MiB (1%)
  49. Service kind                             : Complete Main
复制代码
节目简介:
第七届世界军人运动会开幕式于2019年10月18日晚在武汉体育中心举行,中共中央总书记、国家主席、中央军委主席习近平出席开幕式并宣布运动会开幕。
第七届世界军人运动会开幕式总导演为杨笑阳,全程持续约2小时20分钟,包括文艺表演前仪式部分、文艺表演部分、文艺表演后仪式部分。
第七届世界军人运动会是我国第一次承办的综合性国际军事体育赛事,也是继北京奥运会后我国举办的规模最大的国际体育盛会。来自109个国家的9300余名军体健儿将在江城武汉同场竞技、增进友谊。

链接: https://pan.baidu.com/s/1N8uV0tQAr2MfklnD3YZ_4g
提取码:
此处内容已经被作者隐藏,请输入验证码查看

验证码 
  
① 微信扫描右侧二维码关注Hao4K影音官方微信公众号。
② 关注后回复“资源验证码”即可获取验证码。


回复

使用道具 举报

 

精彩评论7

倒序浏览
czfh 发表于 2019-11-6 02:23:52 | 显示全部楼层
 

支持Hao4k
回复 支持 反对

使用道具 举报

 
ZML199980 发表于 2019-11-5 10:22:51 | 显示全部楼层
 
支持Hao4k发展
回复 支持 反对

使用道具 举报

 
zyrkg3000 发表于 2019-11-1 20:25:38 | 显示全部楼层
 
很赞的资源,多谢楼主分享!^_^
回复 支持 反对

使用道具 举报

 
yoogin 发表于 2019-11-1 10:15:11 | 显示全部楼层
 
等了好几天。楼主辛苦啦。棒棒哒
回复 支持 反对

使用道具 举报

 
理解的心 发表于 2019-11-1 08:59:45 来自手机 | 显示全部楼层
 
看起来不错
回复 支持 反对

使用道具 举报

 
发烧之人 发表于 2019-11-1 02:50:31 | 显示全部楼层
 
提取码不对,没有显示文件
回复 支持 反对

使用道具 举报

 
xiekang11105 发表于 2019-10-31 11:18:15 | 显示全部楼层
 
百度网盘好难下,哪位大神下载后弄成磁力链接
回复 支持 反对

使用道具 举报

 
您需要登录后才可以回帖 登录 | 立即注册

本版积分规则


0关注

0粉丝

1帖子

排行榜
作者专栏

关注微信公众号第一时间推送精彩

官方微信

手机访问

Hao4K影音

专注4k庭影音,提供家庭影音社区、家庭影音器材库、影音问答平台、影音商城服务家庭影音用户。

本站内容部分由用户自主分享和转载自互联网,转载目的在于传递更多信息,并不代表本网赞同其观点和对其真实性负责。

如有侵权、违反国家法律政策行为,请联系我们,我们会第一时间及时清除和处理!

举报反馈邮箱:admin@hao4k.cn

Copyright   ©2016-2019  Hao4K影音Powered by©Hao4K 粤公网安备 44030302001429号   粤ICP备18155646号-1 |网站地图