专注4K家庭影音, 服务千万家庭影音发烧友!
手机版
访问手机版

在线
客服

Hao4K影音在线客服服务时间: 9:00-24:00

选择下列客服马上在线沟通:

快速
发帖

关注
微信

关注微信二维码
顶部

[4K 美剧] 好兆头 第一季4k Good.Omens.S01.2160p.AMZN.WEBRip.DDP5.1.x264电视剧

[复制链接]
大红色 发表于 2019-11-1 22:02:35 | 显示全部楼层 |阅读模式 打印 上一主题 下一主题
电视剧频道
电视剧封面:
电视剧名: 好兆头 第一季4k
年  代: 2019  
国  家: 美国
类  别: 剧情 喜剧 奇幻 
语  言: 英语
字  幕: 英文原版
上映日期: 2019-05-31
文件格式: mkv    
视频效果: 4K(3840x2160)    
资源大小: 85.36 GB
片  长: 50 分钟
导  演: 道格拉斯·麦金农
剧情简介: BBC与Amazon合拍的6集奇幻喜剧《好兆头 Good Omens》。
  这部剧由《美国众神》作者尼尔·盖曼与《碟形世界》作者特里·普拉切特所著的同名幽默奇幻小说改篇(该小说名称是恶搞恐怖电影《凶兆 The Omen》)。 两位作家斩获了二十余次奇幻文学的头等大奖,写《好兆头》却只是为了让对方大笑出声。原著功力可想而知。
  《好兆头》讲述2018年时末日审判将近,正邪两方招兵买马﹑世界异象频发,敌基督“撒旦之子”现世,天堂地狱之战一触即发。但是一个挑剔又老好人的天使亚次拉菲尔Aziraphale(Michael Sheen饰)及一个热爱摇滚的恶魔克鲁利Crowley(David Tennant饰)都不想搞事。他两一直住在地球,成了千年的挚友,过着互相代班摸鱼打发上司的生活,觉得在人间挺舒坦的(譬如人间有寿司、旧书店、潮流音乐和飙车)。于是两人决定教导年幼的“撒旦之子”放弃毁灭世界。但根本没有人意识到,“撒旦之子”从一开始就被抱错了,现在这个就是个普通人……
  演员表:
  Michael Sheen饰演开旧书店的吹毛求疵老好人天使亚次拉菲尔Aziraphale
  David Tennan饰演热爱摇滚与飙车的恶魔克鲁利A.J.Crowley
  Adria Arjona饰演安娜森玛·仪祁Anathema Device,大女巫艾格尼斯·风子Agnes Nutter的后裔,预言家家族的小女儿;
  Nina Sosanya饰演恶魔教会“圣贝利尔唠叨修会”的唠叨修女玛丽·饶舌Mary Loquacious
  Ned Dennehy饰演地狱公爵哈斯塔Hastur;
  Ariyon Bakare饰演地狱公爵利古尔Ligur;
  Michael McKean饰演猎巫中士沙德维尔Shadwel;
  Jack Whitehall饰演牛顿·帕西法Newton Pulsifer,新人猎巫二等兵;
  Miranda Richardson饰演特雷西Tracy夫人,灵媒/兼职交际花;
  Sam Taylor Buck饰演亚当·杨Adam Young,有点可爱的儿童敌基督;
  Amma Ris饰演小辣椒佩帕Pepper﹑Ilan Galkoff饰演布赖恩Brian﹑Alfie Taylor饰演温斯利戴Wensleydale;
  Daniel Mays饰演反基督的父亲Arthur Young﹑Sian Brooke则饰演母亲角色Deidre Young
  Jon Hamm饰演天使长加百列/Gabriel
  Frances McDormand配音上帝之声/旁白
  Benedict Cumberbatch配音撒旦
 
好预兆 / 扯淡凶兆 / 吉兆/好兆头 第一季4k Good.Omens.S01.2160p.AMZN.WEBRip.DDP5.1.x264电视剧
  1. Video
  2. ID : 1
  3. Format : AVC
  4. Format/Info : Advanced Video Codec
  5. Format profile : High@L5.1
  6. Format settings : CABAC / 7 Ref Frames
  7. Format settings, CABAC : Yes
  8. Format settings, Reference frames : 7 frames
  9. Codec ID : V_MPEG4/ISO/AVC
  10. Duration : 56 min 14 s
  11. Bit rate : 39.3 Mb/s
  12. Width : 3 840 pixels
  13. Height : 1 632 pixels
  14. Display aspect ratio : 2.35:1
  15. Frame rate mode : Constant
  16. Frame rate : 25.000 FPS
  17. Color space : YUV
  18. Chroma subsampling : 4:2:0
  19. Bit depth : 8 bits
  20. Scan type : Progressive
  21. Bits/(Pixel*Frame) : 0.251
  22. Stream size : 15.4 GiB (98%)
  23. Writing library : x264 core 158 r2984 3759fcb
  24. Encoding settings : cabac=1 / ref=7 / deblock=1:-3:-3 / analyse=0x3:0x133 / me=umh / subme=10 / psy=1 / psy_rd=1.00:0.00 / mixed_ref=1 / me_range=48 / chroma_me=1 / trellis=2 / 8x8dct=1 / cqm=0 / deadzone=21,11 / fast_pskip=0 / chroma_qp_offset=-2 / threads=24 / lookahead_threads=4 / sliced_threads=0 / nr=0 / decimate=0 / interlaced=0 / bluray_compat=0 / constrained_intra=0 / bframes=8 / b_pyramid=2 / b_adapt=2 / b_bias=0 / direct=3 / weightb=1 / open_gop=0 / weightp=2 / keyint=250 / keyint_min=25 / scenecut=40 / intra_refresh=0 / rc=crf / mbtree=0 / crf=17.0 / qcomp=0.60 / qpmin=0 / qpmax=69 / qpstep=4 / ip_ratio=1.30 / pb_ratio=1.20 / aq=3:0.80
  25. Default : Yes
  26. Forced : No

  27. Audio
  28. ID : 2
  29. Format : E-AC-3
  30. Format/Info : Enhanced AC-3
  31. Commercial name : Dolby Digital Plus
  32. Codec ID : A_EAC3
  33. Duration : 56 min 14 s
  34. Bit rate mode : Constant
  35. Bit rate : 640 kb/s
  36. Channel(s) : 6 channels
  37. Channel layout : L R C LFE Ls Rs
  38. Sampling rate : 48.0 kHz
  39. Frame rate : 31.250 FPS (1536 SPF)
  40. Compression mode : Lossy
  41. Stream size : 257 MiB (2%)
  42. Language : English
  43. Service kind : Complete Main
  44. Default : Yes
  45. Forced : No
复制代码


好预兆 / 扯淡凶兆 / 吉兆/好兆头 第一季4k Good.Omens.S01.2160p.AMZN.WEBRip.DDP5.1.x264电视剧下载

好兆头 第一季4k Good.Omens.S01.2160p.AMZN.WEBRip.DDP5.1.x264【85.36 GB】
好兆头 第一季4k Good.Omens.S01.2160p.AMZN.WEBRip.DDP5.1.x264-AJP69[rartv].torrent
(附件大小: 214.38 KB  )
回复

使用道具 举报

 

精彩评论3

倒序浏览
四季冬 发表于 4 天前 来自手机 | 显示全部楼层
 
没速度啊,这么新的资源还没人下吗
回复 支持 反对

使用道具 举报

 
Yone 发表于 2019-11-3 04:40:28 来自手机 | 显示全部楼层
 
感谢分享,有剧追了
回复 支持 反对

使用道具 举报

 
栺着心賍説噯沵 发表于 2019-11-1 23:17:48 | 显示全部楼层
 
占位编辑
回复 支持 反对

使用道具 举报

 
您需要登录后才可以回帖 登录 | 立即注册

本版积分规则


0关注

0粉丝

36帖子

排行榜
作者专栏

关注微信公众号第一时间推送精彩

官方微信

手机访问

Hao4K影音

专注4k庭影音,提供家庭影音社区、家庭影音器材库、影音问答平台、影音商城服务家庭影音用户。

本站内容部分由用户自主分享和转载自互联网,转载目的在于传递更多信息,并不代表本网赞同其观点和对其真实性负责。

如有侵权、违反国家法律政策行为,请联系我们,我们会第一时间及时清除和处理!

举报反馈邮箱:admin@hao4k.cn

Copyright   ©2016-2019  Hao4K影音Powered by©Hao4K 粤公网安备 44030302001429号   粤ICP备18155646号-1 |网站地图