专注4K家庭影音, 服务千万家庭影音发烧友!
手机版
访问手机版

在线
客服

Hao4K影音在线客服服务时间: 9:00-24:00

选择下列客服马上在线沟通:

快速
发帖

关注
微信

关注微信二维码
顶部

[4K 美剧] 走进黑暗 第一季4k Into.The.Dark.S01.2160p.HULU.WEBRip.DDP5.1.x265电视剧

[复制链接]
大红色 发表于 2019-11-2 15:53:51 | 显示全部楼层 |阅读模式 打印 上一主题 下一主题
电视剧频道
电视剧封面:
电视剧名: 走进黑暗 第一季4k
年  代: 2018  
国  家: 美国
类  别: 惊悚 剧情 
语  言: 英语
字  幕: 英文原版
上映日期: 2018-10-05
文件格式: mkv    
视频效果: 4K(3840x2160)    
资源大小: 114.00 GB
片  长: 90 分钟
导  演: 保罗·戴维斯 / 帕特里克·卢西尔 / 丹尼尔·斯坦
剧情简介: Hulu过去宣布与Blumhouse Television合作制作一部新式恐怖诗选剧,当时未命名的该诗选剧正式定名《黑暗诗选 Into the Dark》。这剧最创新的是!一个月放出一集!《黑暗诗选》新集会于每个月首个星期五上线,首集在美国时间10月5日放出。(因此要看 完首季得等到明年9月)
 
黑暗诗选 / 浸入黑暗 / 深入黑暗 / 进入黑暗/走进黑暗 第一季4k Into.The.Dark.S01.2160p.HULU.WEBRip.DDP5.1.x265电视剧信息:
  1. Video
  2. ID : 1
  3. Format : HEVC
  4. Format/Info : High Efficiency Video Coding
  5. Format profile : Main 10@L5.1@Main
  6. Codec ID : V_MPEGH/ISO/HEVC
  7. Duration : 1 h 33 min
  8. Bit rate : 15.5 Mb/s
  9. Width : 3 840 pixels
  10. Height : 2 160 pixels
  11. Display aspect ratio : 16:9
  12. Frame rate mode : Constant
  13. Frame rate : 23.976 (24000/1001) FPS
  14. Color space : YUV
  15. Chroma subsampling : 4:2:0
  16. Bit depth : 10 bits
  17. Bits/(Pixel*Frame) : 0.078
  18. Stream size : 10.1 GiB (98%)
  19. Language : English
  20. Default : Yes
  21. Forced : No

  22. Audio
  23. ID : 2
  24. Format : E-AC-3
  25. Format/Info : Enhanced AC-3
  26. Commercial name : Dolby Digital Plus
  27. Codec ID : A_EAC3
  28. Duration : 1 h 33 min
  29. Bit rate mode : Constant
  30. Bit rate : 256 kb/s
  31. Channel(s) : 6 channels
  32. Channel layout : L R C LFE Ls Rs
  33. Sampling rate : 48.0 kHz
  34. Frame rate : 31.250 FPS (1536 SPF)
  35. Compression mode : Lossy
  36. Stream size : 171 MiB (2%)
  37. Language : English
  38. Service kind : Complete Main
  39. Default : Yes
  40. Forced : No

  41. Text
  42. ID : 3
  43. Format : UTF-8
  44. Codec ID : S_TEXT/UTF8
  45. Codec ID/Info : UTF-8 Plain Text
  46. Duration : 1 h 31 min
  47. Bit rate : 59 b/s
  48. Count of elements : 1352
  49. Stream size : 40.1 KiB (0%)
  50. Title : English
  51. Language : English
  52. Default : No
  53. Forced : No
复制代码

黑暗诗选 / 浸入黑暗 / 深入黑暗 / 进入黑暗/走进黑暗 第一季4k Into.The.Dark.S01.2160p.HULU.WEBRip.DDP5.1.x265电视剧下载

走进黑暗 第一季4k Into.The.Dark.S01.2160p.HULU.WEBRip.DDP5.1.x265【114.00 GB】
走进黑暗 第一季4k Into.The.Dark.S01.2160p.HULU.WEBRip.DDP5.1.x265-NiXON[rartv].torrent
(附件大小: 286.69 KB  )
回复

使用道具 举报

 

精彩评论1

倒序浏览
梦想起航 发表于 2019-11-2 16:43:53 来自手机 | 显示全部楼层
 
看帖要回,回帖才健康,在踩踩,楼主辛苦了!
回复 支持 反对

使用道具 举报

 
您需要登录后才可以回帖 登录 | 立即注册

本版积分规则


0关注

0粉丝

35帖子

排行榜
作者专栏

关注微信公众号第一时间推送精彩

官方微信

手机访问

Hao4K影音

专注4k庭影音,提供家庭影音社区、家庭影音器材库、影音问答平台、影音商城服务家庭影音用户。

本站内容部分由用户自主分享和转载自互联网,转载目的在于传递更多信息,并不代表本网赞同其观点和对其真实性负责。

如有侵权、违反国家法律政策行为,请联系我们,我们会第一时间及时清除和处理!

举报反馈邮箱:admin@hao4k.cn

Copyright   ©2016-2019  Hao4K影音Powered by©Hao4K 粤公网安备 44030302001429号   粤ICP备18155646号-1 |网站地图