专注4K家庭影音, 服务千万家庭影音发烧友!
手机版
访问手机版

在线
客服

Hao4K影音在线客服服务时间: 9:00-24:00

选择下列客服马上在线沟通:

快速
发帖

关注
微信

关注微信二维码
顶部

[4K 美剧] 城堡岩 第二季4k Castle.Rock.S02E01.2160p.HULU.WEBRip.DDP5.1.x265电视剧

[复制链接]
大红色 发表于 2019-11-4 21:05:25 | 显示全部楼层 |阅读模式 打印 上一主题 下一主题
电视剧频道
电视剧封面:
电视剧名: 城堡岩 第二季4k
年  代: 2019  
国  家: 美国
类  别: 剧情 悬疑 奇幻 
语  言: 英语
字  幕: 英文原版
上映日期: 2019-10-23
文件格式: mkv    
视频效果: 4K(3840x2160)    
资源大小: 6.35 GB
片  长: 60 分钟
导  演: 格雷格·艾坦尼斯 / 菲尔·亚伯拉罕 / Anne Sewitsky
剧情简介: 《城堡岩》确定续订第二季!首季由比尔·斯卡斯加德、安德烈·霍兰等主演,迈克尔·乌彭达尔执导,J·J·艾布拉姆斯制片,根据史蒂芬·金同名小说改编。故围绕缅因州的某小镇展开,史蒂芬·金诸多小说中的诡异故事将悉数展现。
 
城堡岩 第二季4k Castle.Rock.S02E01.2160p.HULU.WEBRip.DDP5.1.x265电视剧信息:
  1. Video
  2. ID : 1
  3. Format : HEVC
  4. Format/Info : High Efficiency Video Coding
  5. Format profile : Main 10@L5.1@Main
  6. Codec ID : V_MPEGH/ISO/HEVC
  7. Duration : 1 h 0 min
  8. Bit rate : 14.8 Mb/s
  9. Width : 3 840 pixels
  10. Height : 2 160 pixels
  11. Display aspect ratio : 16:9
  12. Frame rate mode : Constant
  13. Frame rate : 23.976 (24000/1001) FPS
  14. Color space : YUV
  15. Chroma subsampling : 4:2:0
  16. Bit depth : 10 bits
  17. Bits/(Pixel*Frame) : 0.075
  18. Stream size : 6.24 GiB (98%)
  19. Language : English
  20. Default : Yes
  21. Forced : No

  22. Audio
  23. ID : 2
  24. Format : E-AC-3
  25. Format/Info : Enhanced AC-3
  26. Commercial name : Dolby Digital Plus
  27. Codec ID : A_EAC3
  28. Duration : 1 h 0 min
  29. Bit rate mode : Constant
  30. Bit rate : 256 kb/s
  31. Channel(s) : 6 channels
  32. Channel layout : L R C LFE Ls Rs
  33. Sampling rate : 48.0 kHz
  34. Frame rate : 31.250 FPS (1536 SPF)
  35. Compression mode : Lossy
  36. Stream size : 110 MiB (2%)
  37. Language : English
  38. Service kind : Complete Main
  39. Default : Yes
  40. Forced : No

  41. Text
  42. ID : 3
  43. Format : UTF-8
  44. Codec ID : S_TEXT/UTF8
  45. Codec ID/Info : UTF-8 Plain Text
  46. Duration : 1 h 0 min
  47. Bit rate : 63 b/s
  48. Count of elements : 980
  49. Stream size : 27.8 KiB (0%)
  50. Title : English
  51. Language : English
  52. Default : No
  53. Forced : No
复制代码

城堡岩 第二季4k Castle.Rock.S02E01.2160p.HULU.WEBRip.DDP5.1.x265电视剧下载
城堡岩 第二季 4k Castle.Rock.S02E01.2160p.HULU.WEBRip.DDP5.1.x265【6.35 GB】
城堡岩 第二季 4k Castle.Rock.S02E01.2160p.HULU.WEBRip.DDP5.1.x265-NiXON[rartv].torrent
(附件大小: 32.31 KB  )
回复

使用道具 举报

 

精彩评论2

倒序浏览
18061722521 发表于 2019-11-6 18:15:52 | 显示全部楼层
 
一天只能下三个啊~让我好等
回复 支持 反对

使用道具 举报

 
不逗的逗比 发表于 2019-11-4 21:55:27 | 显示全部楼层
 
前排顶,很好!
回复 支持 反对

使用道具 举报

 
您需要登录后才可以回帖 登录 | 立即注册

本版积分规则


0关注

0粉丝

40帖子

排行榜
作者专栏

关注微信公众号第一时间推送精彩

官方微信

手机访问

Hao4K影音

专注4k庭影音,提供家庭影音社区、家庭影音器材库、影音问答平台、影音商城服务家庭影音用户。

本站内容部分由用户自主分享和转载自互联网,转载目的在于传递更多信息,并不代表本网赞同其观点和对其真实性负责。

如有侵权、违反国家法律政策行为,请联系我们,我们会第一时间及时清除和处理!

举报反馈邮箱:admin@hao4k.cn

Copyright   ©2016-2019  Hao4K影音Powered by©Hao4K 粤公网安备 44030302001429号   粤ICP备18155646号-1 |网站地图