专注4K家庭影音, 服务千万家庭影音发烧友!
手机版
访问手机版

在线
客服

Hao4K影音在线客服服务时间: 9:00-24:00

选择下列客服马上在线沟通:

快速
发帖

关注
微信

关注微信二维码
顶部

[4K 英剧] 英国式丑闻 第一集季4k A.Very.English.Scandal.S01.2160p.AMZN.WEBRip.x265.10bit.HDR.DDP5.1电视剧

[复制链接]
大红色 发表于 2019-11-4 21:32:52 | 显示全部楼层 |阅读模式 打印 上一主题 下一主题
电视剧频道
电视剧封面:
电视剧名: 英国式丑闻 第一集季4k
年  代: 2018  
国  家: 英国
类  别: 犯罪 剧情 传记 
语  言: 英语
字  幕: 英文原版
上映日期: 2018-05-20
文件格式: mkv    
视频效果: 4K(3840x2160)    
资源大小: 18.41 GB
片  长: 60 分钟
导  演: 斯蒂芬·弗雷斯
剧情简介: BBC One的3集迷你剧《英式丑闻 A Very English Scandal》根据Jeremy Thorpe的真人真事所改篇。在60年代末英国才刚刚对同性恋除罪化,而当时作为自由党领袖,以及百年来英国政党中最年轻的领袖,Jeremy Thorpe(Hugh Grant饰)隐藏着一个秘密 – 他有一个前同性恋人 Norman Scott(Ben Whishaw饰)。
  只要Norman Scott还活着,这对Jeremy Thorpe来说都是威胁,因此他策划谋杀前度,但最终不但不成事,还被对方指控意图谋杀。此事令Jeremy Thorpe成为首位因谋杀案而受审判的英国政治家,更被公众得知他的同志身份;最终Jeremy Thorpe虽然被判无罪,但也结束了政治生涯。
  该剧由Stephen Frears执导﹑Russell T. Davies负责执笔。
 
本帖最后由 大红色 于 2019年11月4日 21:35 编辑

英式丑闻/英国式丑闻 第一集季4k A.Very.English.Scandal.S01.2160p.AMZN.WEBRip.x265.10bit.HDR.DDP5.1电视剧信息
  1. Video
  2. ID : 1
  3. Format : HEVC
  4. Format/Info : High Efficiency Video Coding
  5. Format profile : Main 10@L5@Main
  6. HDR format : SMPTE ST 2094 App 4, Version 0
  7. Codec ID : V_MPEGH/ISO/HEVC
  8. Duration : 58 min 7 s
  9. Bit rate : 14.4 Mb/s
  10. Width : 3 840 pixels
  11. Height : 2 160 pixels
  12. Display aspect ratio : 16:9
  13. Frame rate mode : Constant
  14. Frame rate : 25.000 FPS
  15. Standard : NTSC
  16. Color space : YUV
  17. Chroma subsampling : 4:2:0 (Type 2)
  18. Bit depth : 10 bits
  19. Bits/(Pixel*Frame) : 0.070
  20. Stream size : 5.86 GiB (93%)
  21. Default : Yes
  22. Forced : No
  23. Color range : Limited
  24. Color primaries : BT.2020
  25. Transfer characteristics : PQ
  26. Matrix coefficients : BT.2020 non-constant
  27. Mastering display color primaries : Display P3
  28. Mastering display luminance : min: 0.0001 cd/m2, max: 1000 cd/m2
  29. Maximum Content Light Level : 999 cd/m2
  30. Maximum Frame-Average Light Level : 168 cd/m2

  31. Audio #1
  32. ID : 2
  33. Format : E-AC-3
  34. Format/Info : Enhanced AC-3
  35. Commercial name : Dolby Digital Plus
  36. Codec ID : A_EAC3
  37. Duration : 58 min 7 s
  38. Bit rate mode : Constant
  39. Bit rate : 640 kb/s
  40. Channel(s) : 6 channels
  41. Channel layout : L R C LFE Ls Rs
  42. Sampling rate : 48.0 kHz
  43. Frame rate : 31.250 FPS (1536 SPF)
  44. Compression mode : Lossy
  45. Stream size : 266 MiB (4%)
  46. Title : English
  47. Language : English
  48. Service kind : Complete Main
  49. Default : Yes
  50. Forced : No
复制代码

英式丑闻/英国式丑闻 第一集季4k A.Very.English.Scandal.S01.2160p.AMZN.WEBRip.x265.10bit.HDR.DDP5.1电视剧下载
英国式丑闻 第一集季4k A.Very.English.Scandal.S01.2160p.AMZN.WEBRip.x265.10bit.HDR.DDP5.1【18.41 GB】
英国式丑闻 第一集季4k A.Very.English.Scandal.S01.2160p.AMZN.WEBRip.x265.10bit.HD.torrent
(附件大小: 92.83 KB  )
回复

使用道具 举报

 

精彩评论1

倒序浏览
懂得失去。 发表于 2019-11-4 22:22:58 来自手机 | 显示全部楼层
 
1v1飘过
回复 支持 反对

使用道具 举报

 
您需要登录后才可以回帖 登录 | 立即注册

本版积分规则


0关注

0粉丝

36帖子

排行榜
作者专栏

关注微信公众号第一时间推送精彩

官方微信

手机访问

Hao4K影音

专注4k庭影音,提供家庭影音社区、家庭影音器材库、影音问答平台、影音商城服务家庭影音用户。

本站内容部分由用户自主分享和转载自互联网,转载目的在于传递更多信息,并不代表本网赞同其观点和对其真实性负责。

如有侵权、违反国家法律政策行为,请联系我们,我们会第一时间及时清除和处理!

举报反馈邮箱:admin@hao4k.cn

Copyright   ©2016-2019  Hao4K影音Powered by©Hao4K 粤公网安备 44030302001429号   粤ICP备18155646号-1 |网站地图