专注4K家庭影音, 服务千万家庭影音发烧友!
手机版
访问手机版

在线
客服

Hao4K影音在线客服服务时间: 9:00-24:00

选择下列客服马上在线沟通:

快速
发帖

关注
微信

关注微信二维码
顶部

[4K 美剧] 吉尔莫女孩:生命中的一年 第一季4k Gilmore.Girls.A.Year.In.The.Life.S01.2160p.NF.WEBRip.DD5.1.x265电视剧

[复制链接]
大红色 发表于 2019-11-4 21:55:44 | 显示全部楼层 |阅读模式 打印 上一主题 下一主题
电视剧频道
电视剧封面:
电视剧名: 吉尔莫女孩:生命中的一年 第一季4k
年  代: 2016  
国  家: 美国
类  别: 剧情 喜剧 
语  言: 英语
字  幕: 英文原版
上映日期: 2016-11-25
文件格式: mkv    
视频效果: 4K(3840x2160)    
资源大小: 41.48 GB
片  长: 90 分钟
导  演: 丹尼尔·帕拉迪诺 / 埃米·谢尔曼-帕拉迪诺
剧情简介: Netflix近日正式宣布重启经典美剧《吉尔莫女孩》,卡司劳伦·格拉汉姆、阿丽克西斯·布莱德尔、斯科特·帕特森、凯利·毕晓普、肖恩·冈和安庆名惠子以及主创都将回归。
 
吉尔莫女孩:生命中的一年 第一季4k Gilmore.Girls.A.Year.In.The.Life.S01.2160p.NF.WEBRip.DD5.1.x265电视剧信息
  1. Video
  2. ID : 1
  3. Format : HEVC
  4. Format/Info : High Efficiency Video Coding
  5. Format profile : Main 10@L5@Main
  6. Codec ID : V_MPEGH/ISO/HEVC
  7. Duration : 1 h 42 min
  8. Bit rate : 15.6 Mb/s
  9. Width : 3 840 pixels
  10. Height : 2 160 pixels
  11. Display aspect ratio : 16:9
  12. Frame rate mode : Constant
  13. Frame rate : 23.976 (24000/1001) FPS
  14. Color space : YUV
  15. Chroma subsampling : 4:2:0
  16. Bit depth : 10 bits
  17. Bits/(Pixel*Frame) : 0.079
  18. Stream size : 11.2 GiB (98%)
  19. Default : Yes
  20. Forced : No
  21. Color range : Limited
  22. Color primaries : BT.709
  23. Transfer characteristics : BT.709
  24. Matrix coefficients : BT.709

  25. Audio
  26. ID : 2
  27. Format : AC-3
  28. Format/Info : Audio Coding 3
  29. Commercial name : Dolby Digital
  30. Codec ID : A_AC3
  31. Duration : 1 h 42 min
  32. Bit rate mode : Constant
  33. Bit rate : 384 kb/s
  34. Channel(s) : 6 channels
  35. Channel layout : L R C LFE Ls Rs
  36. Sampling rate : 48.0 kHz
  37. Frame rate : 31.250 FPS (1536 SPF)
  38. Bit depth : 16 bits
  39. Compression mode : Lossy
  40. Stream size : 281 MiB (2%)
  41. Title : English
  42. Language : English
  43. Service kind : Complete Main
  44. Default : Yes
  45. Forced : No
复制代码

吉尔莫女孩:生命中的一年 第一季4k Gilmore.Girls.A.Year.In.The.Life.S01.2160p.NF.WEBRip.DD5.1.x265电视剧下载
吉尔莫女孩:生命中的一年 第一季4k Gilmore.Girls.A.Year.In.The.Life.S01.2160p.NF.WEBRip.DD5.1.x265【41.48 GB】
尔莫女孩:生命中的一年 第一季4k Gilmore.Girls.A.Year.In.The.Life.S01.2160p.NF.WE.torrent
(附件大小: 104.62 KB  )
回复

使用道具 举报

 

精彩评论2

倒序浏览
wenshujingg 发表于 7 天前 | 显示全部楼层
 
下来看看,感谢提供资源
回复 支持 反对

使用道具 举报

 
遲暮、花未央 发表于 2019-11-4 22:48:51 | 显示全部楼层
 
元芳你怎么看?
回复 支持 反对

使用道具 举报

 
您需要登录后才可以回帖 登录 | 立即注册

本版积分规则


0关注

0粉丝

36帖子

排行榜
作者专栏

关注微信公众号第一时间推送精彩

官方微信

手机访问

Hao4K影音

专注4k庭影音,提供家庭影音社区、家庭影音器材库、影音问答平台、影音商城服务家庭影音用户。

本站内容部分由用户自主分享和转载自互联网,转载目的在于传递更多信息,并不代表本网赞同其观点和对其真实性负责。

如有侵权、违反国家法律政策行为,请联系我们,我们会第一时间及时清除和处理!

举报反馈邮箱:admin@hao4k.cn

Copyright   ©2016-2019  Hao4K影音Powered by©Hao4K 粤公网安备 44030302001429号   粤ICP备18155646号-1 |网站地图