专注4K家庭影音, 服务千万家庭影音发烧友!
手机版
访问手机版

在线
客服

Hao4K影音在线客服服务时间: 9:00-24:00

选择下列客服马上在线沟通:

快速
发帖

关注
微信

关注微信二维码
顶部

[4K 美剧] 为全人类 第一季4k For.All.Mankind.S01E01.2160p.ATVP.WEBRip.DDP5.1.Atmos.x265电视剧

[复制链接]
大红色 发表于 2019-11-4 22:12:08 | 显示全部楼层 |阅读模式 打印 上一主题 下一主题
电视剧频道
电视剧封面:
电视剧名: 为全人类 第一季4k
年  代: 2019  
国  家: 美国
类  别: 科幻 剧情 
语  言: 英语
字  幕: 英文原版
上映日期: 2019-11-01
文件格式: mkv    
视频效果: 4K(3840x2160)    
资源大小: 9.91 GB
片  长: 62 分钟
导  演: 罗纳德·D·摩尔
剧情简介: Apple的流媒体平台AppleTV+旗下自制剧——太空科幻剧《为了全人类》(For All Mankind)发布预告,这是AppleTV+旗下首部曝光预告的剧集。
  该剧由乔尔·金纳曼、莎拉·琼斯(《诅咒》)主演,讲述美国在太空登月竞争中输给了苏联,NASA宇航员们要向火星等更远的地方探索的故事。剧集主创为《太空堡垒卡拉狄加》的幻想剧大手罗纳德·D·摩尔,《冰血暴》制片人马特·沃伯特&本·纳蒂维参与创作。共10集,AppleTV+将在今年秋天上线,具体时间未定。
 
太空骄子(港) / 太空使命(台) / 为了全人类/为全人类 第一季4k  For.All.Mankind.S01E01.2160p.ATVP.WEBRip.DDP5.1.Atmos.x265电视剧信息
  1. Video
  2. ID : 1
  3. Format : HEVC
  4. Format/Info : High Efficiency Video Coding
  5. Format profile : Main 10@L5@High
  6. Codec ID : V_MPEGH/ISO/HEVC
  7. Duration : 1 h 5 min
  8. Bit rate : 20.3 Mb/s
  9. Width : 3 840 pixels
  10. Height : 1 920 pixels
  11. Display aspect ratio : 2.000
  12. Frame rate mode : Constant
  13. Frame rate : 23.976 (24000/1001) FPS
  14. Color space : YUV
  15. Chroma subsampling : 4:2:0
  16. Bit depth : 10 bits
  17. Bits/(Pixel*Frame) : 0.115
  18. Stream size : 9.25 GiB (94%)
  19. Language : English
  20. Default : Yes
  21. Forced : No
  22. Color range : Limited
  23. Color primaries : BT.709
  24. Transfer characteristics : BT.709
  25. Matrix coefficients : BT.709

  26. Audio
  27. ID : 2
  28. Format : E-AC-3 JOC
  29. Format/Info : Enhanced AC-3 with Joint Object Coding
  30. Commercial name : Dolby Digital Plus with Dolby Atmos
  31. Codec ID : A_EAC3
  32. Duration : 1 h 5 min
  33. Bit rate mode : Constant
  34. Bit rate : 768 kb/s
  35. Channel(s) : 6 channels
  36. Channel layout : L R C LFE Ls Rs
  37. Sampling rate : 48.0 kHz
  38. Frame rate : 31.250 FPS (1536 SPF)
  39. Compression mode : Lossy
  40. Stream size : 358 MiB (4%)
  41. Language : English
  42. Service kind : Complete Main
  43. Default : Yes
  44. Forced : No
  45. Complexity index : 16
  46. Number of dynamic objects : 15
  47. Bed channel count : 1 channel
  48. Bed channel configuration : LFE
复制代码

太空骄子(港) / 太空使命(台) / 为了全人类/为全人类 第一季4k  For.All.Mankind.S01E01.2160p.ATVP.WEBRip.DDP5.1.Atmos.x265电视剧下载
为全人类 第一季4k  For.All.Mankind.S01E01.2160p.ATVP.WEBRip.DDP5.1.Atmos.x265【9.91 GB】
为全人类 第一季4k For.All.Mankind.S01E01.2160p.ATVP.WEBRip.DDP5.1.Atmos.x265-DEF.torrent
(附件大小: 50.25 KB  )
回复

使用道具 举报

 

精彩评论8

倒序浏览
13729664398 发表于 半小时前 | 显示全部楼层
 
謝謝分享影片
回复 支持 反对

使用道具 举报

 
275985548 发表于 昨天 23:11 | 显示全部楼层
 
感谢楼主分享!
回复 支持 反对

使用道具 举报

 
henhaoqi 发表于 前天 11:22 | 显示全部楼层
 
期待后续
回复 支持 反对

使用道具 举报

 
jinhades 发表于 3 天前 | 显示全部楼层
 
感谢楼主分享。。。
回复 支持 反对

使用道具 举报

 
loboy38 发表于 4 天前 | 显示全部楼层
 
謝謝分享影片
回复 支持 反对

使用道具 举报

 
ZDT 发表于 5 天前 | 显示全部楼层
 
好资源,感觉楼主
回复 支持 反对

使用道具 举报

 
wenshujingg 发表于 6 天前 | 显示全部楼层
 
好资源,感觉楼主,不知道现在有中文字幕了没
回复 支持 反对

使用道具 举报

 
╯仅冇旳姿态 发表于 2019-11-4 23:14:27 | 显示全部楼层
 
路过 帮顶 嘿嘿
回复 支持 反对

使用道具 举报

 
您需要登录后才可以回帖 登录 | 立即注册

本版积分规则


0关注

0粉丝

35帖子

排行榜
作者专栏

关注微信公众号第一时间推送精彩

官方微信

手机访问

Hao4K影音

专注4k庭影音,提供家庭影音社区、家庭影音器材库、影音问答平台、影音商城服务家庭影音用户。

本站内容部分由用户自主分享和转载自互联网,转载目的在于传递更多信息,并不代表本网赞同其观点和对其真实性负责。

如有侵权、违反国家法律政策行为,请联系我们,我们会第一时间及时清除和处理!

举报反馈邮箱:admin@hao4k.cn

Copyright   ©2016-2019  Hao4K影音Powered by©Hao4K 粤公网安备 44030302001429号   粤ICP备18155646号-1 |网站地图