专注4K家庭影音, 服务千万家庭影音发烧友!
手机版
访问手机版

在线
客服

Hao4K影音在线客服服务时间: 9:00-24:00

选择下列客服马上在线沟通:

快速
发帖

关注
微信

关注微信二维码
顶部

兰开斯特之王4k The.King.2019.2160p.NF.WEBRip.x265.10bit.HDR.DDP5.1.Atmos电影

  [复制链接]
小板凳 发表于 2019-11-6 17:01:01 | 显示全部楼层 |阅读模式 打印 上一主题 下一主题
电影频道
电影封面:
片  名: 兰开斯特之王4k
电影分类: 剧情   历史   传记   
国  家: 美国   
年  代: 2019
分 辨 率: 4K(3840x2160)    
电影格式: MKV|REMUX   
画质标准: HDR10 
音质编码: Dolby Digital Plus Audio    
电影声道: 5.1声道    
电影语言: 英文原版     
资源大小: 20.71 GB
导  演: 大卫·米奇欧德
豆瓣评分: 6.2 分
中文字幕: -
剧情简介: 蒂莫西·柴勒梅德将加盟新片[兰开斯特之王](The King,暂译),出演男主角年轻的亨利五世。亨利五世为英格兰兰开斯特王朝国王,在他短暂的九年统治期间,他取得了中世纪任何一位英格兰国王都未取得过的军事辉煌。本片由布拉德·皮特公司Plan B制作,大卫·米奇欧德([动物王国])执导,米奇欧德也将与乔尔·埃哲顿担任编剧,计划6月开机。
 
国王/兰开斯特之王4k The.King.2019.2160p.NF.WEBRip.x265.10bit.HDR.DDP5.1.Atmos电影电影信息
  1. Video
  2. ID : 1
  3. Format : HEVC
  4. Format/Info : High Efficiency Video Coding
  5. Format profile : Main 10@L5.1@High
  6. HDR format : SMPTE ST 2086, HDR10 compatible
  7. Codec ID : V_MPEGH/ISO/HEVC
  8. Duration : 2 h 19 min
  9. Bit rate : 20.3 Mb/s
  10. Width : 3 840 pixels
  11. Height : 1 604 pixels
  12. Display aspect ratio : 2.40:1
  13. Frame rate mode : Constant
  14. Frame rate : 24.000 FPS
  15. Color space : YUV
  16. Chroma subsampling : 4:2:0 (Type 2)
  17. Bit depth : 10 bits
  18. Bits/(Pixel*Frame) : 0.137
  19. Stream size : 19.8 GiB (96%)
  20. Writing library : x265 3.1+4-4f6dde51a5db:[Windows][GCC 6.3.0][64 bit] 10bit
  21. Encoding settings : cpuid=1049583 / frame-threads=5 / numa-pools=32 / wpp / no-pmode / no-pme / no-psnr / no-ssim / log-level=2 / input-csp=1 / input-res=3840x1604 / interlace=0 / total-frames=201025 / level-idc=51 / high-tier=1 / uhd-bd=0 / ref=4 / no-allow-non-conformance / repeat-headers / annexb / no-aud / no-hrd / info / hash=0 / no-temporal-layers / open-gop / min-keyint=24 / keyint=240 / gop-lookahead=0 / bframes=11 / b-adapt=2 / b-pyramid / bframe-bias=0 / rc-lookahead=40 / lookahead-slices=4 / scenecut=40 / radl=0 / no-splice / no-intra-refresh / ctu=64 / min-cu-size=8 / rect / no-amp / max-tu-size=32 / tu-inter-depth=1 / tu-intra-depth=1 / limit-tu=0 / rdoq-level=2 / dynamic-rd=0.00 / no-ssim-rd / signhide / no-tskip / nr-intra=0 / nr-inter=0 / no-constrained-intra / no-strong-intra-smoothing / max-merge=3 / limit-refs=3 / limit-modes / me=2 / subme=6 / merange=57 / temporal-mvp / weightp / no-weightb / no-analyze-src-pics / deblock=-3:-3 / no-sao / no-sao-non-deblock / rd=4 / no-early-skip / no-rskip / no-fast-intra / no-tskip-fast / no-cu-lossless / no-b-intra / no-splitrd-skip / rdpenalty=0 / psy-rd=4.00 / psy-rdoq=10.00 / no-rd-refine / no-lossless / cbqpoffs=0 / crqpoffs=0 / rc=crf / crf=17.0 / qcomp=0.60 / qpstep=4 / stats-write=0 / stats-read=0 / vbv-maxrate=160000 / vbv-bufsize=160000 / vbv-init=0.9 / crf-max=0.0 / crf-min=0.0 / ipratio=1.25 / pbratio=1.20 / aq-mode=3 / aq-strength=0.70 / no-cutree / zone-count=0 / no-strict-cbr / qg-size=32 / rc-grain / qpmax=69 / qpmin=0 / no-const-vbv / sar=1 / overscan=0 / videoformat=5 / range=0 / colorprim=9 / transfer=16 / colormatrix=9 / chromaloc=1 / chromaloc-top=2 / chromaloc-bottom=2 / display-window=0 / master-display=G(13250,34500)B(7500,3000)R(34000,16000)WP(15635,16450)L(10000000,01)cll=1952,97 / min-luma=0 / max-luma=1023 / log2-max-poc-lsb=8 / vui-timing-info / vui-hrd-info / slices=1 / no-opt-qp-pps / no-opt-ref-list-length-pps / no-multi-pass-opt-rps / scenecut-bias=0.05 / no-opt-cu-delta-qp / no-aq-motion / hdr / hdr-opt / no-dhdr10-opt / no-idr-recovery-sei / analysis-reuse-level=5 / scale-factor=0 / refine-intra=0 / refine-inter=0 / refine-mv=0 / refine-ctu-distortion=0 / no-limit-sao / ctu-info=0 / no-lowpass-dct / refine-analysis-type=0 / copy-pic=1 / max-ausize-factor=1.0 / no-dynamic-refine / no-single-sei / no-hevc-aq / no-svt / no-field / qp-adaptation-range=1.00
  22. Default : Yes
  23. Forced : No
  24. Color range : Limited
  25. Color primaries : BT.2020
  26. Transfer characteristics : PQ
  27. Matrix coefficients : BT.2020 non-constant
  28. Mastering display color primaries : Display P3
  29. Mastering display luminance : min: 0.0001 cd/m2, max: 1000 cd/m2
  30. Maximum Content Light Level : 1952 cd/m2
  31. Maximum Frame-Average Light Level : 97 cd/m2

  32. Audio
  33. ID : 2
  34. Format : E-AC-3 JOC
  35. Format/Info : Enhanced AC-3 with Joint Object Coding
  36. Commercial name : Dolby Digital Plus with Dolby Atmos
  37. Codec ID : A_EAC3
  38. Duration : 2 h 20 min
  39. Bit rate mode : Constant
  40. Bit rate : 768 kb/s
  41. Channel(s) : 6 channels
  42. Channel layout : L R C LFE Ls Rs
  43. Sampling rate : 48.0 kHz
  44. Frame rate : 31.250 FPS (1536 SPF)
  45. Compression mode : Lossy
  46. Delay relative to video : 16 ms
  47. Stream size : 772 MiB (4%)
  48. Language : English
  49. Service kind : Complete Main
  50. Default : No
  51. Forced : No
  52. Complexity index : 16
  53. Number of dynamic objects : 15
  54. Bed channel count : 1 channel
  55. Bed channel configuration : LFE
复制代码

国王/兰开斯特之王4k The.King.2019.2160p.NF.WEBRip.x265.10bit.HDR.DDP5.1.Atmos电影电影下载
兰开斯特之王4k The.King.2019.2160p.NF.WEBRip.x265.10bit.HDR.DDP5.1.Atmos[20.71 GB]
兰开斯特之王4k The.King.2019.2160p.NF.WEBRip.x265.10bit.HDR.DDP5.1.Atmos-iNTENSO.torrent
(附件大小: 52.45 KB  )
参与人数 1贡献值 +1 收起 理由
johnzmhochou + 1 <font style="vertical-align: inh

查看全部评分总评分 : 贡献值 +1

回复

使用道具 举报

 

精彩评论52

倒序浏览
anhuilun 发表于 7 小时前 | 显示全部楼层
 

多谢楼主分享
回复 支持 反对

使用道具 举报

 
sharnom 发表于 8 小时前 来自手机 | 显示全部楼层
 
怎么下载啊?
回复 支持 反对

使用道具 举报

 
ChiuGor 发表于 昨天 15:30 | 显示全部楼层
 
多谢楼主分享
回复 支持 反对

使用道具 举报

 
洪hh 发表于 昨天 00:36 来自手机 | 显示全部楼层
 
用什么播放
回复 支持 反对

使用道具 举报

 
lyf01441 发表于 前天 23:42 来自手机 | 显示全部楼层
 
感谢楼主分享
回复 支持 反对

使用道具 举报

 
vt-ok 发表于 前天 14:39 | 显示全部楼层
 
很棒,谢谢分享
回复 支持 反对

使用道具 举报

 
hncx 发表于 前天 09:44 | 显示全部楼层
 
多谢楼主,感谢分享
回复 支持 反对

使用道具 举报

 
qyy1014 发表于 前天 08:20 来自手机 | 显示全部楼层
 
我要做个屁哦哦好吧好吧好吧
回复 支持 反对

使用道具 举报

 
hula75 发表于 前天 02:07 | 显示全部楼层
 
怎么下载完了没有字幕
回复 支持 反对

使用道具 举报

 
吾爱4KHDR 发表于 3 天前 来自手机 | 显示全部楼层
 
我爱4K HDR,谢谢分享
回复 支持 反对

使用道具 举报

 
thpthp 发表于 3 天前 来自手机 | 显示全部楼层
 
谢谢分享
回复 支持 反对

使用道具 举报

 
dannyhung 发表于 3 天前 | 显示全部楼层
 
谢谢楼主分享
回复 支持 反对

使用道具 举报

 
世路如今已惯 发表于 4 天前 | 显示全部楼层
 
谢谢楼主分享
回复 支持 反对

使用道具 举报

 
lichenghang 发表于 4 天前 | 显示全部楼层
 
谢谢分享!!
回复 支持 反对

使用道具 举报

 
iori119kyo 发表于 5 天前 | 显示全部楼层
 

谢谢楼主分享
回复 支持 反对

使用道具 举报

 
a596359993 发表于 5 天前 来自手机 | 显示全部楼层
回复 支持 反对

使用道具 举报

 
wmg 发表于 5 天前 | 显示全部楼层
 
多谢楼主分享
回复 支持 反对

使用道具 举报

 
您需要登录后才可以回帖 登录 | 立即注册

本版积分规则


0关注

4粉丝

15帖子

排行榜
作者专栏

关注微信公众号第一时间推送精彩

官方微信

手机访问

Hao4K影音

专注4k庭影音,提供家庭影音社区、家庭影音器材库、影音问答平台、影音商城服务家庭影音用户。

本站内容部分由用户自主分享和转载自互联网,转载目的在于传递更多信息,并不代表本网赞同其观点和对其真实性负责。

如有侵权、违反国家法律政策行为,请联系我们,我们会第一时间及时清除和处理!

举报反馈邮箱:admin@hao4k.cn

Copyright   ©2016-2019  Hao4K影音Powered by©Hao4K 粤公网安备 44030302001429号   粤ICP备18155646号-1 |网站地图