专注4K家庭影音, 服务千万家庭影音发烧友!

在线
客服

QQ咨询服务时间: 9:00-21:00

选择下列客服马上在线沟通:

快速
发帖

暂无
7*24小时客服服务热线

关注
微信

顶部

戴夫·查普尔:一笑置之4k Dave.Chappelle.Sticks.And.Stones.2019.2160p.NF.WEBRip.x265.10bit.HDR.DD5.1.Atmos电影

大红色 发表于 2019-11-27 21:55:22 | 显示全部楼层
电影频道
电影封面:
片  名: 戴夫·查普尔:一笑置之4k
电影分类: 喜剧   其他   
国  家: 美国   
年  代: 2019  
分 辨 率: 4K(3840x2160)    
电影格式: MKV|REMUX   
画质标准: 其他 
音质编码: Dolby Digital Plus Audio    
电影声道: 5.1声道    
电影语言: 英文原版     
资源大小: 9.20 GB
导  演: Stan Lathan
豆瓣评分: 8.3 分
中文字幕: -
剧情简介: 這部肆無忌憚的脫口秀特輯於亞特蘭大拍攝,戴夫·查普爾在其中大談槍枝文化、鴉片類藥物危機,以及風起雲湧的藝人醜聞。
一笑置之/戴夫·查普尔:一笑置之4k Dave.Chappelle.Sticks.And.Stones.2019.2160p.NF.WEBRip.x265.10bit.HDR.DD5.1.Atmos电影信息
  1. Video
  2. ID : 1
  3. Format : HEVC
  4. Format/Info : High Efficiency Video Coding
  5. Format profile : Main 10@L5@Main
  6. HDR format : SMPTE ST 2086, HDR10 compatible
  7. Codec ID : V_MPEGH/ISO/HEVC
  8. Duration : 1 h 5 min
  9. Bit rate : 18.9 Mb/s
  10. Width : 3 840 pixels
  11. Height : 2 160 pixels
  12. Display aspect ratio : 16:9
  13. Frame rate mode : Constant
  14. Frame rate : 23.976 (24000/1001) FPS
  15. Color space : YUV
  16. Chroma subsampling : 4:2:0
  17. Bit depth : 10 bits
  18. Bits/(Pixel*Frame) : 0.095
  19. Stream size : 8.67 GiB (94%)
  20. Writing library : x265 3.2+9-971180b100f8:[Windows][MSVC 1923][64 bit] 10bit
  21. Encoding settings : cpuid=1111039 / frame-threads=4 / numa-pools=0,28 / wpp / no-pmode / no-pme / no-psnr / no-ssim / log-level=2 / input-csp=1 / input-res=3840x2160 / interlace=0 / total-frames=0 / level-idc=0 / high-tier=1 / uhd-bd=0 / ref=5 / no-allow-non-conformance / repeat-headers / annexb / no-aud / no-hrd / info / hash=0 / no-temporal-layers / open-gop / min-keyint=23 / keyint=250 / gop-lookahead=0 / bframes=8 / b-adapt=2 / b-pyramid / bframe-bias=0 / rc-lookahead=40 / lookahead-slices=0 / scenecut=40 / radl=0 / no-splice / no-intra-refresh / ctu=64 / min-cu-size=8 / no-rect / no-amp / max-tu-size=32 / tu-inter-depth=3 / tu-intra-depth=3 / limit-tu=0 / rdoq-level=1 / dynamic-rd=0.00 / no-ssim-rd / signhide / no-tskip / nr-intra=0 / nr-inter=0 / no-constrained-intra / strong-intra-smoothing / max-merge=5 / limit-refs=0 / no-limit-modes / me=3 / subme=4 / merange=57 / temporal-mvp / no-frame-dup / no-hme / weightp / weightb / no-analyze-src-pics / deblock=0:0 / no-sao / no-sao-non-deblock / rd=6 / selective-sao=0 / no-early-skip / rskip / no-fast-intra / no-tskip-fast / no-cu-lossless / b-intra / no-splitrd-skip / rdpenalty=0 / psy-rd=4.00 / psy-rdoq=8.00 / no-rd-refine / no-lossless / cbqpoffs=0 / crqpoffs=0 / rc=crf / crf=17.0 / qcomp=0.60 / qpstep=4 / stats-write=0 / stats-read=0 / ipratio=1.40 / pbratio=1.30 / aq-mode=2 / aq-strength=1.00 / cutree / zone-count=0 / no-strict-cbr / qg-size=32 / no-rc-grain / qpmax=69 / qpmin=0 / no-const-vbv / sar=0 / overscan=0 / videoformat=5 / range=0 / colorprim=9 / transfer=16 / colormatrix=9 / chromaloc=0 / display-window=0 / master-display=G(13250,34500)B(7500,3000)R(34000,16000)WP(15635,16450)L(10000000,1) / cll=1485,96 / min-luma=0 / max-luma=1023 / log2-max-poc-lsb=8 / vui-timing-info / vui-hrd-info / slices=1 / no-opt-qp-pps / no-opt-ref-list-length-pps / no-multi-pass-opt-rps / scenecut-bias=0.05 / no-opt-cu-delta-qp / no-aq-motion / hdr / hdr-opt / no-dhdr10-opt / no-idr-recovery-sei / analysis-reuse-level=5 / scale-factor=0 / refine-intra=0 / refine-inter=0 / refine-mv=1 / refine-ctu-distortion=0 / no-limit-sao / ctu-info=0 / no-lowpass-dct / refine-analysis-type=0 / copy-pic=1 / max-ausize-factor=1.0 / no-dynamic-refine / no-single-sei / no-hevc-aq / no-svt / no-field / qp-adaptation-range=1.00
  22. Default : Yes
  23. Forced : No
  24. Color range : Limited
  25. Color primaries : BT.2020
  26. Transfer characteristics : PQ
  27. Matrix coefficients : BT.2020 non-constant
  28. Mastering display color primaries : Display P3
  29. Mastering display luminance : min: 0.0001 cd/m2, max: 1000 cd/m2
  30. Maximum Content Light Level : 1485 cd/m2
  31. Maximum Frame-Average Light Level : 96 cd/m2

  32. Audio
  33. ID : 2
  34. Format : E-AC-3 JOC
  35. Format/Info : Enhanced AC-3 with Joint Object Coding
  36. Commercial name : Dolby Digital Plus with Dolby Atmos
  37. Codec ID : A_EAC3
  38. Duration : 1 h 5 min
  39. Bit rate mode : Constant
  40. Bit rate : 768 kb/s
  41. Channel(s) : 6 channels
  42. Channel layout : L R C LFE Ls Rs
  43. Sampling rate : 48.0 kHz
  44. Frame rate : 31.250 FPS (1536 SPF)
  45. Compression mode : Lossy
  46. Stream size : 360 MiB (4%)
  47. Title : English
  48. Language : English
  49. Service kind : Complete Main
  50. Default : Yes
  51. Forced : No
  52. Complexity index : 16
  53. Number of dynamic objects : 15
  54. Bed channel count : 1 channel
  55. Bed channel configuration : LFE
复制代码

一笑置之/戴夫·查普尔:一笑置之4k Dave.Chappelle.Sticks.And.Stones.2019.2160p.NF.WEBRip.x265.10bit.HDR.DD5.1.Atmos电影下载

戴夫·查普尔:一笑置之4k Dave.Chappelle.Sticks.And.Stones.2019.2160p.NF.WEBRip.x265.10bit.HDR.DD5.1.Atmos【9.20 GB】
戴夫·查普尔:一笑置之4k Dave.Chappelle.Sticks.And.Stones.2019.2160p.NF.WEBRip.x.torrent
(46.62 KB)
回复

使用道具 举报

 

精彩评论46

倒序浏览
 
ZJZ010 发表于 2020-3-4 09:43:06 | 显示全部楼层
谢谢分享!谢谢!
回复 支持 反对

使用道具 举报

 
FrankXu116 发表于 2020-2-26 17:46:01 | 显示全部楼层
不错  已经下载收藏了 谢谢
回复 支持 反对

使用道具 举报

 
 
ZJZ010 发表于 2020-2-2 08:25:33 | 显示全部楼层
谢谢分享,看着不错
回复 支持 反对

使用道具 举报

 
hanjj 发表于 2020-1-20 10:51:34 | 显示全部楼层
谢谢分享,谢谢分享
回复 支持 反对

使用道具 举报

 
 
cqsun6210 发表于 2020-1-17 23:31:26 | 显示全部楼层
谢谢分享,看着不错
回复 支持 反对

使用道具 举报

 
qaz227 发表于 2020-1-12 22:40:47 来自手机 | 显示全部楼层
谢谢楼主分享
回复 支持 反对

使用道具 举报

 
 
周末疯gb 发表于 2020-1-5 18:59:46 | 显示全部楼层

感谢分享,谢谢
回复 支持 反对

使用道具 举报

 
红莲信使 发表于 2020-1-3 16:07:04 | 显示全部楼层

谢谢楼主分享
回复 支持 反对

使用道具 举报

 
 
GDLH 发表于 2020-1-1 10:09:30 | 显示全部楼层
谢谢分享!谢谢!
回复 支持 反对

使用道具 举报

 
nervwij 发表于 2019-12-31 18:37:02 | 显示全部楼层
感谢分享 辛苦啦
回复 支持 反对

使用道具 举报

 
 
十四口 发表于 2019-12-21 12:29:40 | 显示全部楼层
非常感谢,有中文字幕吗
回复 支持 反对

使用道具 举报

 
fukaimin 发表于 2019-12-5 21:19:41 | 显示全部楼层
感谢楼主分享!hao4k有你更精彩!!
回复 支持 反对

使用道具 举报

 
您需要登录后才可以回帖 登录 | 立即注册

本版积分规则


0关注

67粉丝

172帖子

排行榜
社区广告

关注微信公众号第一时间推送精彩

官方微信

手机访问

Hao4K影音

专注4k家庭影音,提供家庭影音社区,家庭影音器材库,影音问答平台,影音商城,服务千万家庭影音用户。

本站内容部分由用户自主分享和转载自互联网,转载目的在于传递更多信息,并不代表本网赞同其观点和对其真实性负责。

如有侵权、违反国家法律政策行为,请联系我们,我们会第一时间及时清除和处理!

举报反馈邮箱:admin@hao4k.cn

Copyright   ©2019-2020  Hao4K影音粤公网安备 44030302001429号     ( 粤ICP备18155646号-1 )|网站地图