专注4K家庭影音, 服务千万家庭影音发烧友!
手机版
访问手机版

在线
客服

Hao4K影音在线客服服务时间: 9:00-24:00

选择下列客服马上在线沟通:

快速
发帖

关注
微信

关注微信二维码
顶部
开启左侧

星球大战前传2:克隆人的进攻4k Star.Wars.Episode.II.Attack.Of.The.Clones.2002.2160p.DSNP.WEBRip.x265.10bit.HDR.DTS电影

 关闭 [复制链接]
大红色 发表于 2019-12-3 22:29:09 | 显示全部楼层 |阅读模式 打印 上一主题 下一主题
电影频道
电影封面:
片  名: 星球大战前传2:克隆人的进攻4k
电影分类: 动作   科幻   冒险   
国  家: 美国   
年  代: 00年代    
分 辨 率: 4K(3840x2160)    
电影格式: MKV|REMUX   
画质标准: HDR    
音质编码: DTS-HD Master Audio    
电影声道: 6.1声道    
电影语言: 英文原版     
资源大小: 17.56 GB
导  演: 乔治·卢卡斯
豆瓣评分: 7.9 分
中文字幕: -
剧情简介: 绝地武士战胜西斯学徒后十年,银河共和国再次面临威胁,前绝地武士杜库伯爵(克里斯托弗•李 Christopher Lee 饰)鼓动数千星系与共和国决裂,并筹建大批机器人军队为政变做准备。纳布星的阿米达拉(娜塔丽·波特曼 Natalie Portman 饰)结束女王任期后以议员身份抵达考路斯坎星,决意为组建共和军队投出关键一票。欧比-旺•肯诺比(伊万•麦克格雷格 Ewan McGregor 饰)携长大了的阿纳金(海登·克里斯滕森 Hayden Christensen 饰)奉命保护阿米达拉的安全。在阿纳金护送阿米达拉返回纳布星避难的途中,二人情愫暗生,决定共同前往塔图因星寻找阿纳金之母。与此同时,欧比-旺追查刺客行迹一路深入吉诺西斯星,发现了杜库伯爵的阴谋,自己却深陷囹圄,危在旦夕……
  本片获2003年第75界奥斯卡最佳视觉效果奖提名。
 
星球大战第二集:克隆人的进攻 / 星球大战前传II:复制人侵略(港) / 星际大战二部曲:复制人全面进攻(台) / 星战前传之克隆人的进攻 / 复制人的袭击/星球大战前传2:克隆人的进攻4k Star.Wars.Episode.II.Attack.Of.The.Clones.2002.2160p.DSNP.WEBRip.x265.10bit.HDR.DTS电影信息
  1. Video
  2. ID : 1
  3. Format : HEVC
  4. Format/Info : High Efficiency Video Coding
  5. Format profile : Main 10@L5@Main
  6. Codec ID : V_MPEGH/ISO/HEVC
  7. Duration : 2 h 22 min
  8. Bit rate : 12.3 Mb/s
  9. Width : 3 840 pixels
  10. Height : 1 608 pixels
  11. Display aspect ratio : 2.40:1
  12. Frame rate mode : Constant
  13. Frame rate : 23.976 (24000/1001) FPS
  14. Color space : YUV
  15. Chroma subsampling : 4:2:0
  16. Bit depth : 10 bits
  17. Bits/(Pixel*Frame) : 0.083
  18. Stream size : 12.2 GiB (70%)
  19. Writing library : x265 3.2+9-971180b100f8:[Windows][MSVC 1923][64 bit] 10bit
  20. Encoding settings : cpuid=1111039 / frame-threads=4 / numa-pools=0,28 / wpp / no-pmode / no-pme / no-psnr / no-ssim / log-level=2 / input-csp=1 / input-res=3840x1608 / interlace=0 / total-frames=0 / level-idc=0 / high-tier=1 / uhd-bd=0 / ref=5 / no-allow-non-conformance / repeat-headers / annexb / no-aud / no-hrd / info / hash=0 / no-temporal-layers / open-gop / min-keyint=23 / keyint=250 / gop-lookahead=0 / bframes=8 / b-adapt=2 / b-pyramid / bframe-bias=0 / rc-lookahead=40 / lookahead-slices=0 / scenecut=40 / radl=0 / no-splice / no-intra-refresh / ctu=64 / min-cu-size=8 / no-rect / no-amp / max-tu-size=32 / tu-inter-depth=3 / tu-intra-depth=3 / limit-tu=0 / rdoq-level=1 / dynamic-rd=0.00 / no-ssim-rd / signhide / no-tskip / nr-intra=0 / nr-inter=0 / no-constrained-intra / strong-intra-smoothing / max-merge=5 / limit-refs=0 / no-limit-modes / me=3 / subme=4 / merange=57 / temporal-mvp / no-frame-dup / no-hme / weightp / weightb / no-analyze-src-pics / deblock=0:0 / no-sao / no-sao-non-deblock / rd=6 / selective-sao=0 / no-early-skip / rskip / no-fast-intra / no-tskip-fast / no-cu-lossless / b-intra / no-splitrd-skip / rdpenalty=0 / psy-rd=4.00 / psy-rdoq=8.00 / no-rd-refine / no-lossless / cbqpoffs=0 / crqpoffs=0 / rc=crf / crf=10.0 / qcomp=0.60 / qpstep=4 / stats-write=0 / stats-read=0 / ipratio=1.40 / pbratio=1.30 / aq-mode=2 / aq-strength=1.00 / cutree / zone-count=0 / no-strict-cbr / qg-size=32 / no-rc-grain / qpmax=69 / qpmin=0 / no-const-vbv / sar=0 / overscan=0 / videoformat=5 / range=0 / colorprim=9 / transfer=16 / colormatrix=9 / chromaloc=0 / display-window=0 / cll=0,0 / min-luma=0 / max-luma=1023 / log2-max-poc-lsb=8 / vui-timing-info / vui-hrd-info / slices=1 / no-opt-qp-pps / no-opt-ref-list-length-pps / no-multi-pass-opt-rps / scenecut-bias=0.05 / no-opt-cu-delta-qp / no-aq-motion / hdr / hdr-opt / no-dhdr10-opt / no-idr-recovery-sei / analysis-reuse-level=5 / scale-factor=0 / refine-intra=0 / refine-inter=0 / refine-mv=1 / refine-ctu-distortion=0 / no-limit-sao / ctu-info=0 / no-lowpass-dct / refine-analysis-type=0 / copy-pic=1 / max-ausize-factor=1.0 / no-dynamic-refine / no-single-sei / no-hevc-aq / no-svt / no-field / qp-adaptation-range=1.00
  21. Default : Yes
  22. Forced : No
  23. Color range : Limited
  24. Color primaries : BT.2020
  25. Transfer characteristics : PQ
  26. Matrix coefficients : BT.2020 non-constant

  27. Audio #1
  28. ID : 2
  29. Format : DTS ES XXCH XLL
  30. Format/Info : Digital Theater Systems
  31. Commercial name : DTS-HD Master Audio
  32. Codec ID : A_DTS
  33. Duration : 2 h 22 min
  34. Bit rate mode : Variable
  35. Bit rate : 4 533 kb/s
  36. Channel(s) : 7 channels
  37. Channel layout : C L R Ls Rs LFE Cb
  38. Sampling rate : 48.0 kHz
  39. Frame rate : 93.750 FPS (512 SPF)
  40. Bit depth : 24 bits
  41. Compression mode : Lossless
  42. Stream size : 4.51 GiB (26%)
  43. Title : DTS-HD MA / 6.1 / 48 kHz / 4533 kbps / 24-bit
  44. Language : English
  45. Default : Yes
  46. Forced : No
复制代码

星球大战第二集:克隆人的进攻 / 星球大战前传II:复制人侵略(港) / 星际大战二部曲:复制人全面进攻(台) / 星战前传之克隆人的进攻 / 复制人的袭击/星球大战前传2:克隆人的进攻4k Star.Wars.Episode.II.Attack.Of.The.Clones.2002.2160p.DSNP.WEBRip.x265.10bit.HDR.DTS电影下载
星球大战前传2:克隆人的进攻4k Star.Wars.Episode.II.Attack.Of.The.Clones.2002.2160p.DSNP.WEBRip.x265.10bit.HDR.DTS【17.56 GB】
星球大战前传2:克隆人的进攻4k Star.Wars.Episode.II.Attack.Of.The.Clones.2002.216.torrent
(附件大小: 88.44 KB  )
回复

使用道具 举报

 

精彩评论6

倒序浏览
leish 发表于 2019-12-4 10:01:56 | 显示全部楼层
 
感谢楼主分享!!!!
回复 支持 反对

使用道具 举报

 
freewindfree 发表于 2019-12-4 09:30:53 | 显示全部楼层
 
经典的电影,有原盘杜比就好了,感谢分享
回复 支持 反对

使用道具 举报

 
BOQIJIN 发表于 2019-12-4 09:20:24 来自手机 | 显示全部楼层
 
准备好硬盘了。
回复 支持 反对

使用道具 举报

 
logol5558 发表于 2019-12-4 08:50:28 | 显示全部楼层
 
感谢分享!!!!!!!!!!!!!
回复 支持 反对

使用道具 举报

 
zjsgqdy 发表于 2019-12-3 22:52:27 | 显示全部楼层
 
感谢楼主分享 还不要K币
回复 支持 反对

使用道具 举报

 
ql_pentium 发表于 2019-12-3 22:41:20 | 显示全部楼层
 
没想到我是第一个,感谢楼主分享!
回复 支持 反对

使用道具 举报

 
您需要登录后才可以回帖 登录 | 立即注册

本版积分规则


0关注

5粉丝

73帖子

排行榜

关注微信公众号第一时间推送精彩

官方微信

手机访问

Hao4K影音

专注4k家庭影音,提供家庭影音社区,家庭影音器材库,影音问答平台,影音商城,服务千万家庭影音用户。

本站内容部分由用户自主分享和转载自互联网,转载目的在于传递更多信息,并不代表本网赞同其观点和对其真实性负责。

如有侵权、违反国家法律政策行为,请联系我们,我们会第一时间及时清除和处理!

举报反馈邮箱:admin@hao4k.cn

Copyright   ©2016-2019  Hao4K影音Powered by©Hao4K 粤公网安备 44030302001429号   粤ICP备18155646号-1 |网站地图