专注4K家庭影音, 服务千万家庭影音发烧友!

在线
客服

QQ咨询服务时间: 9:00-21:00

选择下列客服马上在线沟通:

快速
发帖

暂无
7*24小时客服服务热线

关注
微信

顶部

多莉·帕顿:拨动心弦4k Dolly.Partons.Heartstrings.S01.2160p.NF.WEBRip.x265.10bit.HDR.DDP5.1音乐电视剧

大红色 发表于 2020-1-2 14:44:03 | 显示全部楼层
电视剧频道
电视剧封面:
电视剧名: 多莉·帕顿:拨动心弦4k
年  代: 2019  
国  家: 美国
类  别: 剧情 喜剧 歌舞 
语  言: 英语
字  幕: 英文原版
上映日期: 2019-11-22
文件格式: mkv    
视频效果: 4K(3840x2160)    
资源大小: 70.05 GB
片  长: -
导  演: 托马斯·伊安·格里菲斯 / 玛丽·佩吉·科勒尔 / Lisa Melamed
剧情简介: 你钟爱的多莉的歌曲,你期待已久的故事。《多莉·帕顿: 心弦之声》是一部选集剧集,展示了她最受喜爱的歌曲背后的故事、记忆和灵感。每一集都以多莉的新曲和经典之作为配乐。从爱情故事、励志故事到家庭剧、西部片和复仇题材喜剧片,每个故事都有不同的基调。
多莉·帕顿:心弦之声 / Dolly Parton:动心弦(港) / 桃莉·巴顿:拨动心弦(台) / 多莉·巴顿的心弦/多莉·帕顿:拨动心弦4k Dolly.Partons.Heartstrings.S01.2160p.NF.WEBRip.x265.10bit.HDR.DDP5.1音乐电视剧信息
  1. Video
  2. ID : 1
  3. Format : HEVC
  4. Format/Info : High Efficiency Video Coding
  5. Format profile : Main 10@L5.1@High
  6. HDR format : SMPTE ST 2086, HDR10 compatible
  7. Codec ID : V_MPEGH/ISO/HEVC
  8. Duration : 1 h 25 min
  9. Bit rate : 18.6 Mb/s
  10. Width : 3 840 pixels
  11. Height : 2 160 pixels
  12. Display aspect ratio : 16:9
  13. Frame rate mode : Constant
  14. Frame rate : 23.976 (24000/1001) FPS
  15. Color space : YUV
  16. Chroma subsampling : 4:2:0
  17. Bit depth : 10 bits
  18. Bits/(Pixel*Frame) : 0.094
  19. Stream size : 11.1 GiB (95%)
  20. Writing library : x265 3.2+9-971180b100f8:[Windows][MSVC 1923][64 bit] 10bit
  21. Encoding settings : cpuid=1111039 / frame-threads=4 / numa-pools=28,0 / wpp / no-pmode / no-pme / no-psnr / no-ssim / log-level=2 / input-csp=1 / input-res=3840x2160 / interlace=0 / total-frames=0 / level-idc=51 / high-tier=1 / uhd-bd=0 / ref=5 / no-allow-non-conformance / repeat-headers / annexb / no-aud / no-hrd / info / hash=0 / no-temporal-layers / open-gop / min-keyint=23 / keyint=250 / gop-lookahead=0 / bframes=8 / b-adapt=2 / b-pyramid / bframe-bias=0 / rc-lookahead=40 / lookahead-slices=0 / scenecut=40 / radl=0 / no-splice / no-intra-refresh / ctu=64 / min-cu-size=8 / no-rect / no-amp / max-tu-size=32 / tu-inter-depth=3 / tu-intra-depth=3 / limit-tu=0 / rdoq-level=1 / dynamic-rd=0.00 / no-ssim-rd / signhide / no-tskip / nr-intra=0 / nr-inter=0 / no-constrained-intra / strong-intra-smoothing / max-merge=5 / limit-refs=0 / no-limit-modes / me=3 / subme=4 / merange=57 / temporal-mvp / no-frame-dup / no-hme / weightp / weightb / no-analyze-src-pics / deblock=0:0 / no-sao / no-sao-non-deblock / rd=6 / selective-sao=0 / no-early-skip / rskip / no-fast-intra / no-tskip-fast / no-cu-lossless / b-intra / no-splitrd-skip / rdpenalty=0 / psy-rd=4.00 / psy-rdoq=8.00 / no-rd-refine / no-lossless / cbqpoffs=0 / crqpoffs=0 / rc=crf / crf=15.0 / qcomp=0.60 / qpstep=4 / stats-write=0 / stats-read=0 / vbv-maxrate=160000 / vbv-bufsize=160000 / vbv-init=0.9 / crf-max=0.0 / crf-min=0.0 / ipratio=1.40 / pbratio=1.30 / aq-mode=2 / aq-strength=1.00 / cutree / zone-count=0 / no-strict-cbr / qg-size=32 / no-rc-grain / qpmax=69 / qpmin=0 / no-const-vbv / sar=0 / overscan=0 / videoformat=5 / range=0 / colorprim=9 / transfer=16 / colormatrix=9 / chromaloc=0 / display-window=0 / master-display=G(13250,34500)B(7500,3000)R(34000,16000)WP(15635,16450)L(10000000,1) / cll=9838,203 / min-luma=0 / max-luma=1023 / log2-max-poc-lsb=8 / vui-timing-info / vui-hrd-info / slices=1 / no-opt-qp-pps / no-opt-ref-list-length-pps / no-multi-pass-opt-rps / scenecut-bias=0.05 / no-opt-cu-delta-qp / no-aq-motion / hdr / hdr-opt / no-dhdr10-opt / no-idr-recovery-sei / analysis-reuse-level=5 / scale-factor=0 / refine-intra=0 / refine-inter=0 / refine-mv=1 / refine-ctu-distortion=0 / no-limit-sao / ctu-info=0 / no-lowpass-dct / refine-analysis-type=0 / copy-pic=1 / max-ausize-factor=1.0 / no-dynamic-refine / no-single-sei / no-hevc-aq / no-svt / no-field / qp-adaptation-range=1.00
  22. Default : Yes
  23. Forced : No
  24. Color range : Limited
  25. Color primaries : BT.2020
  26. Transfer characteristics : PQ
  27. Matrix coefficients : BT.2020 non-constant
  28. Mastering display color primaries : Display P3
  29. Mastering display luminance : min: 0.0001 cd/m2, max: 1000 cd/m2
  30. Maximum Content Light Level : 9838 cd/m2
  31. Maximum Frame-Average Light Level : 203 cd/m2

  32. Audio
  33. ID : 2
  34. Format : E-AC-3
  35. Format/Info : Enhanced AC-3
  36. Commercial name : Dolby Digital Plus
  37. Codec ID : A_EAC3
  38. Duration : 1 h 25 min
  39. Bit rate mode : Constant
  40. Bit rate : 640 kb/s
  41. Channel(s) : 6 channels
  42. Channel layout : L R C LFE Ls Rs
  43. Sampling rate : 48.0 kHz
  44. Frame rate : 31.250 FPS (1536 SPF)
  45. Compression mode : Lossy
  46. Stream size : 393 MiB (3%)
  47. Title : English
  48. Language : English
  49. Service kind : Complete Main
  50. Default : Yes
  51. Forced : No

  52. Text #1
  53. ID : 3
  54. Format : UTF-8
  55. Codec ID : S_TEXT/UTF8
  56. Codec ID/Info : UTF-8 Plain Text
  57. Language : English
  58. Default : No
  59. Forced : No
复制代码

多莉·帕顿:心弦之声 / Dolly Parton:动心弦(港) / 桃莉·巴顿:拨动心弦(台) / 多莉·巴顿的心弦/多莉·帕顿:拨动心弦4k Dolly.Partons.Heartstrings.S01.2160p.NF.WEBRip.x265.10bit.HDR.DDP5.1音乐电视剧下载

多莉·帕顿:拨动心弦4k Dolly.Partons.Heartstrings.S01.2160p.NF.WEBRip.x265.10bit.HDR.DDP5.1【70.05 GB】
多莉·帕顿:拨动心弦4k Dolly.Partons.Heartstrings.S01.2160p.NF.WEBRip.x265.10bit.torrent
(176.47 KB)
回复

使用道具 举报

发烧友评论8

倒序浏览
xv6950 发表于 2020-1-28 19:58:37 | 显示全部楼层
新年快乐!愿Hao4k越办越好
回复 支持 反对

使用道具 举报

lwlynn 发表于 2020-1-17 06:29:33 来自手机 | 显示全部楼层
谢谢分享  看看好不好看
回复 支持 反对

使用道具 举报

是梦终会醒 发表于 2020-1-2 16:23:38 来自手机 | 显示全部楼层
为毛老子总也抢不到沙发?!!
回复 支持 反对

使用道具 举报

您需要登录后才可以回帖 登录 | 立即注册

本版积分规则


0关注

75粉丝

205帖子

热门主题
社区广告

关注微信公众号第一时间推送精彩

官方微信

手机访问

Hao4K影音

专注4k家庭影音,提供家庭影音社区,家庭影音器材库,影音问答平台,影音商城,服务千万家庭影音用户。

本站内容部分由用户自主分享和转载自互联网,转载目的在于传递更多信息,并不代表本网赞同其观点和对其真实性负责。

如有侵权、违反国家法律政策行为,请联系我们,我们会第一时间及时清除和处理!

举报反馈邮箱:admin@hao4k.cn

Copyright  2019-2020  Hao4K影音粤公网安备 44030302001429号     ( 粤ICP备18155646号-1 )|网站地图