专注4K家庭影音, 服务千万家庭影音发烧友!

在线
客服

Hao4K影音在线客服服务时间: 9:00-24:00

选择下列客服马上在线沟通:

快速
发帖

关注
微信

关注微信二维码
顶部
开启左侧

蛇的秘密生活4k The.Secret.Life.Of.Snakes.2016.2160p.WEB.x264纪录片

  [复制链接]
影音人 发表于 2020-3-26 10:50:53 | 显示全部楼层 |阅读模式 打印 上一主题 下一主题
电影频道
电影封面:
片  名: 蛇的秘密生活4k
电影分类: 纪录片   
国  家: 美国   
年  代: 2016    
分 辨 率: 4K(3840x2160)    
电影格式: MKV|REMUX   
画质标准: 其他 
音质编码: 其他DD    
电影声道: 其他 
电影语言: 英文原版     
资源大小: 6.74 GB
导  演: 暂无
豆瓣评分: 7.5 分
中文字幕: -
剧情简介: 这部纪录片的特色是欧洲一些最令人惊叹的物种,例如欧洲加法器,鼻角毒蛇,骰子蛇,环蛇和美人鱼。
 
蛇的秘密生活4k The.Secret.Life.Of.Snakes.2016.2160p.WEB.x264纪录片信息
  1. Video
  2. ID : 1
  3. Format : AVC
  4. Format/Info : Advanced Video Codec
  5. Format profile : Main@L3.1
  6. Format settings : CABAC / 4 Ref Frames
  7. Format settings, CABAC : Yes
  8. Format settings, Reference frames : 4 frames
  9. Codec ID : V_MPEG4/ISO/AVC
  10. Duration : 51 min 50 s
  11. Bit rate : 18.5 Mb/s
  12. Width : 3 840 pixels
  13. Height : 2 160 pixels
  14. Display aspect ratio : 16:9
  15. Frame rate mode : Constant
  16. Frame rate : 29.970 (30000/1001) FPS
  17. Color space : YUV
  18. Chroma subsampling : 4:2:0
  19. Bit depth : 8 bits
  20. Scan type : Progressive
  21. Bits/(Pixel*Frame) : 0.075
  22. Stream size : 6.67 GiB (99%)
  23. Writing library : x264 core 148
  24. Encoding settings : cabac=1 / ref=3 / deblock=1:0:0 / analyse=0x1:0x111 / me=hex / subme=7 / psy=1 / psy_rd=1.00:0.00 / mixed_ref=1 / me_range=16 / chroma_me=1 / trellis=1 / 8x8dct=0 / cqm=0 / deadzone=21,11 / fast_pskip=1 / chroma_qp_offset=-2 / threads=48 / lookahead_threads=8 / sliced_threads=0 / nr=0 / decimate=1 / interlaced=0 / bluray_compat=0 / constrained_intra=0 / bframes=3 / b_pyramid=2 / b_adapt=1 / b_bias=0 / direct=1 / weightb=1 / open_gop=0 / weightp=2 / keyint=90 / keyint_min=9 / scenecut=0 / intra_refresh=0 / rc_lookahead=40 / rc=abr / mbtree=1 / bitrate=18523 / ratetol=1.0 / qcomp=0.60 / qpmin=0 / qpmax=69 / qpstep=4 / ip_ratio=1.40 / aq=1:1.00
  25. Default : Yes
  26. Forced : No
  27. Color range : Limited
  28. Color primaries : BT.709
  29. Transfer characteristics : BT.709
  30. Matrix coefficients : BT.709

  31. Audio
  32. ID : 2
  33. Format : AAC LC
  34. Format/Info : Advanced Audio Codec Low Complexity
  35. Codec ID : A_AAC-2
  36. Duration : 51 min 50 s
  37. Bit rate : 192 kb/s
  38. Channel(s) : 2 channels
  39. Channel layout : L R
  40. Sampling rate : 44.1 kHz
  41. Frame rate : 43.066 FPS (1024 SPF)
  42. Compression mode : Lossy
  43. Delay relative to video : -46 ms
  44. Stream size : 70.3 MiB (1%)
  45. Language : English
  46. Default : Yes
  47. Forced : No
复制代码

蛇的秘密生活4k The.Secret.Life.Of.Snakes.2016.2160p.WEB.x264纪录片下载
蛇的秘密生活4k The.Secret.Life.Of.Snakes.2016.2160p.WEB.x264【6.74 GB】
[Hao4k]蛇的秘密生活4k The.Secret.Life.Of.Snakes.2016.2160p.WEB.x264-PFa.torrent
(附件大小: 34.34 KB   资源售价: 3 K币)
回复

使用道具 举报

 

精彩评论93

倒序浏览
 
菜菜丶 发表于 前天 16:14 | 显示全部楼层
 

感谢楼主分享!
回复 支持 反对

使用道具 举报

 
oxdong1 发表于 前天 15:18 | 显示全部楼层
 
感谢分享!
回复 支持 反对

使用道具 举报

 
790814lifa 发表于 前天 10:19 来自手机 | 显示全部楼层
 
谢谢平台,谢谢楼主分享
回复 支持 反对

使用道具 举报

 
胖头愚 发表于 3 天前 | 显示全部楼层
 
经典!值得收藏!
回复 支持 反对

使用道具 举报

 
wyx1976 发表于 4 天前 来自手机 | 显示全部楼层
 
谢谢老板
回复 支持 反对

使用道具 举报

 
lndlyuang 发表于 4 天前 来自手机 | 显示全部楼层
 
这个能有uhd原盘吗?期待。
回复 支持 反对

使用道具 举报

 
leyatt 发表于 4 天前 | 显示全部楼层
 
感谢楼主分享
回复 支持 反对

使用道具 举报

 
790814lifa 发表于 4 天前 来自手机 | 显示全部楼层
 
谢谢分享,辛苦了
回复 支持 反对

使用道具 举报

 
 
yorkyanghua 发表于 6 天前 | 显示全部楼层
 
感谢楼主啊
回复 支持 反对

使用道具 举报

 
老虎兄弟 发表于 6 天前 | 显示全部楼层
 
将近52分钟片长,只有6.5G的2016p,为什么这么小呢?
回复 支持 反对

使用道具 举报

 
 
yxying886 发表于 6 天前 | 显示全部楼层
 
感谢楼主啊
回复 支持 反对

使用道具 举报

 
movie2006 发表于 7 天前 | 显示全部楼层
 

感谢楼主分享
回复 支持 反对

使用道具 举报

 
 
hxchy0083 发表于 7 天前 | 显示全部楼层
 
孩子想看动物,让他看看这个,哈哈
回复 支持 反对

使用道具 举报

 
您需要登录后才可以回帖 登录 | 立即注册

本版积分规则


0关注

256粉丝

170帖子

排行榜
关闭

   站内通知上一条 /1 下一条

关注微信公众号第一时间推送精彩

官方微信

手机访问

Hao4K影音

专注4k家庭影音,提供家庭影音社区,家庭影音器材库,影音问答平台,影音商城,服务千万家庭影音用户。

本站内容部分由用户自主分享和转载自互联网,转载目的在于传递更多信息,并不代表本网赞同其观点和对其真实性负责。

如有侵权、违反国家法律政策行为,请联系我们,我们会第一时间及时清除和处理!

举报反馈邮箱:admin@hao4k.cn

Copyright   ©2016-2019  Hao4K影音Powered by©Hao4K 粤公网安备 44030302001429号   粤ICP备18155646号-1 |网站地图