专注4K家庭影音, 服务千万家庭影音发烧友!

[美剧] 星女4k Stargirl.S01E01.2160p.WEB.H265电视剧

大红色 发表于 2020-5-18 17:10:50 | 显示全部楼层
电视剧频道
电视剧封面:
电视剧名: 星女4k
年  代: 2020  
国  家: 美国
类  别: 动作 科幻 
语  言: 英语
字  幕: 英文原版
上映日期: 2020-05-19
文件格式: mkv    
视频效果: 4K(3840x2160)    
资源大小: 4.15 GB
片  长: 45 分钟
导  演: 詹妮弗·彭 / 格伦·温特 / 安蒂·阿玛加尼安 / 克里斯·曼利 / 迈克尔·南金 / 莉·汤普森
剧情简介: 这部新DC超级英雄剧讲述了一个高中女生的英雄路,由前DC首席创意官杰夫·琼斯主导制作,布瑞克·巴辛格主演。高中生Courtney Whitmore发现,自己的继父原来是美国正义协会成员“星侠”的助手“星条”,一次旧事后,星侠的星杖尘封在了继父家中。而本应已经无人能使用的星杖,在Courtney手中焕发了巨大威力……
逐星女/星女4k Stargirl.S01E01.2160p.WEB.H265电视剧信息
  1. Video
  2. ID : 2
  3. Format : HEVC
  4. Format/Info : High Efficiency Video Coding
  5. Format profile : Main@L5@Main
  6. Codec ID : V_MPEGH/ISO/HEVC
  7. Duration : 53 min 6 s
  8. Bit rate : 10.3 Mb/s
  9. Width : 3 840 pixels
  10. Height : 2 160 pixels
  11. Display aspect ratio : 16:9
  12. Frame rate mode : Constant
  13. Frame rate : 23.976 (24000/1001) FPS
  14. Color space : YUV
  15. Chroma subsampling : 4:2:0
  16. Bit depth : 8 bits
  17. Bits/(Pixel*Frame) : 0.052
  18. Stream size : 3.83 GiB (94%)
  19. Default : Yes
  20. Forced : No
  21. Color range : Limited
  22. Color primaries : BT.709
  23. Transfer characteristics : BT.709
  24. Matrix coefficients : BT.709

  25. Audio
  26. ID : 3
  27. Format : E-AC-3
  28. Format/Info : Enhanced AC-3
  29. Commercial name : Dolby Digital Plus
  30. Codec ID : A_EAC3
  31. Duration : 53 min 6 s
  32. Bit rate mode : Constant
  33. Bit rate : 640 kb/s
  34. Channel(s) : 6 channels
  35. Channel layout : L R C LFE Ls Rs
  36. Sampling rate : 48.0 kHz
  37. Frame rate : 31.250 FPS (1536 SPF)
  38. Compression mode : Lossy
  39. Stream size : 243 MiB (6%)
  40. Language : English
  41. Service kind : Complete Main
  42. Default : Yes
  43. Forced : No

  44. Text
  45. ID : 1
  46. Format : UTF-8
  47. Codec ID : S_TEXT/UTF8
  48. Codec ID/Info : UTF-8 Plain Text
  49. Duration : 52 min 39 s
  50. Bit rate : 53 b/s
  51. Count of elements : 712
  52. Stream size : 20.6 KiB (0%)
  53. Language : English
  54. Default : No
  55. Forced : No
复制代码

逐星女/星女4k Stargirl.S01E01.2160p.WEB.H265电视剧下载

星女4k Stargirl.S01.2160p.DCU.WEBRip.DDP5.1.x265【43.47 GB】
星女4k Stargirl.S01.2160p.DCU.WEBRip.DDP5.1.x265-NTb[rartv].torrent
(110.22 KB)
回复

使用道具 举报

发烧友评论3

倒序浏览
slimboy 发表于 2020-9-21 09:00:04 | 显示全部楼层
支持支持 所有DC宇宙的都很感兴趣
回复 支持 反对

使用道具 举报

twist0212 发表于 2020-6-14 17:41:03 | 显示全部楼层
谢谢分享
回复 支持 反对

使用道具 举报

您需要登录后才可以回帖 登录 | 立即注册

本版积分规则

在线客服

在线客服

服务时间 9:00—18:00

返回顶部

关注微信公众号第一时间推送精彩

官方微信

手机访问

Hao4K影音

专注4k家庭影音,提供家庭影音社区,家庭影音器材库,影音问答平台,影音商城,服务千万家庭影音用户。

本站内容部分由用户自主分享和转载自互联网,转载目的在于传递更多信息,并不代表本网赞同其观点和对其真实性负责。

如有侵权、违反国家法律政策行为,请联系我们,我们会第一时间及时清除和处理!

举报反馈邮箱:admin@hao4k.cn

Copyright  2019-2020  Hao4K影音粤公网安备 44030302001429号    ( 粤ICP备18155646号-1 )|网站地图