专注4K家庭影音, 服务千万家庭影音发烧友!

茜宝4k Seberg.2019.HDR.2160p.WEB.h265电影下载

 关闭
老顽童 发表于 2020-5-19 22:21:23 | 显示全部楼层
电影频道
电影封面:
片  名: 茜宝4k
电影分类: 惊悚 剧情 传记 
国  家: 美国 英国 
年  代: 2019年
分 辨 率: 4K(3840x2160)
电影格式: MKV|REMUX 
画质标准: HDR 
音质编码: Dolby Digital Plus Audio 
电影声道: 其他 
帧数/FPS: FPS
电影语言: 英文原版 
资源大小: 10.56 GB
导  演: 本尼迪克特·安德鲁斯
豆瓣评分: 6.0 分
中文字幕: -
剧情简介: 克里斯汀·斯图尔特将主演政治惊悚新片《四面受敌》(Against All Enemies),饰演美国影星、法国新浪潮的短发女神珍·茜宝。杰克·奥康奈尔、安东尼·麦凯、玛格丽特·库里、科尔姆·米尼参演,本尼迪克特·安德鲁斯(《乌娜》)执导。
  讲述1960年代晚期,茜宝因同情和支持黑豹党(美国左翼黑人民权组织),并与其成员有来往,与民权运动家Hakim Jamal(麦凯饰演)也有情愫。她引起了美国联邦调查局的注意,一位年轻探员(奥康奈尔饰演)对其展开调查。
  由Automatik Entertainment制作,Fred Berger(《爱乐之城》《远山恋人》)、Brian Kavanaugh-Jones(《潜伏4》《午夜逃亡》)、Kate Ga
四面受敌 / 反击恶势力 / Against All Enemies/茜宝4k Seberg.2019.HDR.2160p.WEB.h265电影信息
  1. Video
  2. ID : 1
  3. Format : HEVC
  4. Format/Info : High Efficiency Video Coding
  5. Format profile : Main 10@L5@Main
  6. HDR format : SMPTE ST 2094 App 4, Version 0
  7. Codec ID : V_MPEGH/ISO/HEVC
  8. Duration : 1 h 42 min
  9. Bit rate : 14.1 Mb/s
  10. Width : 3 840 pixels
  11. Height : 1 600 pixels
  12. Display aspect ratio : 2.40:1
  13. Frame rate mode : Constant
  14. Frame rate : 23.976 (24000/1001) FPS
  15. Standard : NTSC
  16. Color space : YUV
  17. Chroma subsampling : 4:2:0 (Type 2)
  18. Bit depth : 10 bits
  19. Bits/(Pixel*Frame) : 0.096
  20. Stream size : 10.1 GiB (96%)
  21. Default : Yes
  22. Forced : No
  23. Color range : Limited
  24. Color primaries : BT.2020
  25. Transfer characteristics : PQ
  26. Matrix coefficients : BT.2020 non-constant
  27. Mastering display color primaries : Display P3
  28. Mastering display luminance : min: 0.0001 cd/m2, max: 1000 cd/m2
  29. Maximum Content Light Level : 340 cd/m2
  30. Maximum Frame-Average Light Level : 174 cd/m2

  31. Audio
  32. ID : 2
  33. Format : E-AC-3
  34. Format/Info : Enhanced AC-3
  35. Commercial name : Dolby Digital Plus
  36. Codec ID : A_EAC3
  37. Duration : 1 h 42 min
  38. Bit rate mode : Constant
  39. Bit rate : 640 kb/s
  40. Channel(s) : 6 channels
  41. Channel layout : L R C LFE Ls Rs
  42. Sampling rate : 48.0 kHz
  43. Frame rate : 31.250 FPS (1536 SPF)
  44. Compression mode : Lossy
  45. Stream size : 469 MiB (4%)
  46. Language : English
  47. Service kind : Complete Main
  48. Default : Yes
  49. Forced : No

  50. Text
  51. ID : 3
  52. Format : UTF-8
  53. Codec ID : S_TEXT/UTF8
  54. Codec ID/Info : UTF-8 Plain Text
  55. Duration : 1 h 41 min
  56. Bit rate : 58 b/s
  57. Count of elements : 1485
  58. Stream size : 43.6 KiB (0%)
  59. Language : English
  60. Default : No
  61. Forced : No
复制代码

四面受敌 / 反击恶势力 / Against All Enemies/茜宝4k Seberg.2019.HDR.2160p.WEB.h265电影下载
茜宝4k Seberg.2019.HDR.2160p.WEB.h265【10.56 GB】
[Hao4k]茜宝4k Seberg.2019.HDR.2160p.WEB.h265-WATCHER.torrent
(53.44 KB)
回复

使用道具 举报

您需要登录后才可以回帖 登录 | 立即注册

本版积分规则

在线客服

在线客服

服务时间 9:00—18:00

返回顶部

关注微信公众号第一时间推送精彩

官方微信

手机访问

Hao4K影音

专注4k家庭影音,提供家庭影音社区,家庭影音器材库,影音问答平台,影音商城,服务千万家庭影音用户。

本站内容部分由用户自主分享和转载自互联网,转载目的在于传递更多信息,并不代表本网赞同其观点和对其真实性负责。

如有侵权、违反国家法律政策行为,请联系我们,我们会第一时间及时清除和处理!

举报反馈邮箱:admin@hao4k.cn

Copyright  2019-2020  Hao4K影音粤公网安备 44030302001429号    ( 粤ICP备18155646号-1 )|网站地图