专注4K家庭影音, 服务千万家庭影音发烧友!

在线
客服

QQ咨询服务时间: 9:00-21:00

选择下列客服马上在线沟通:

快速
发帖

暂无
7*24小时客服服务热线

关注
微信

顶部

[美剧] 白线4k White.Lines.S01.2160p.NF.WEBRip.DDP5.1.Atmos.x265电视剧下载

大红色 发表于 2020-5-22 10:55:55 | 显示全部楼层
电视剧频道
电视剧封面:
电视剧名: 白线4k
年  代: 2020  
国  家: 英国
类  别: 剧情 悬疑 
语  言: 英语
字  幕: 英文原版
上映日期: 2020-05-15
文件格式: mkv    
视频效果: 4K(3840x2160)    
资源大小: 85.08 GB
片  长: 60 分钟
导  演: 尼克·哈姆 / 路易斯·普瑞托 / 阿什利·卫
剧情简介: 曼彻斯特传奇 DJ 在伊维萨岛神秘失踪二十年后,他的遗体终于被人发现,他的妹妹随后回到这座美丽的西班牙岛屿来查清真相。她的调查将其带入了一个惊心动魄的世界,这里有各种各样的夜店,还有谎言和欺骗,这里人人都在行走江湖,她也被迫要正视自己性格中的黑暗面。
白线4k White.Lines.S01.2160p.NF.WEBRip.DDP5.1.Atmos.x265电视剧信息
  1. Video
  2. ID : 1
  3. Format : HEVC
  4. Format/Info : High Efficiency Video Coding
  5. Format profile : Main 10@L5.1@High
  6. Codec ID : V_MPEGH/ISO/HEVC
  7. Duration : 1 h 3 min
  8. Bit rate : 22.0 Mb/s
  9. Width : 3 840 pixels
  10. Height : 1 828 pixels
  11. Display aspect ratio : 2.101
  12. Frame rate mode : Constant
  13. Frame rate : 25.000 FPS
  14. Color space : YUV
  15. Chroma subsampling : 4:2:0
  16. Bit depth : 10 bits
  17. Bits/(Pixel*Frame) : 0.125
  18. Stream size : 9.70 GiB (97%)
  19. Writing library : x265 3.3+26-193db4916b9f:[Windows][MSVC 1925][64 bit] 10bit
  20. Encoding settings : cpuid=1111039 / frame-threads=3 / numa-pools=12 / wpp / no-pmode / no-pme / no-psnr / no-ssim / log-level=2 / input-csp=1 / input-res=3840x1828 / interlace=0 / total-frames=94858 / level-idc=51 / high-tier=1 / uhd-bd=0 / ref=5 / no-allow-non-conformance / repeat-headers / annexb / aud / hrd / info / hash=0 / no-temporal-layers / open-gop / min-keyint=25 / keyint=250 / gop-lookahead=0 / bframes=8 / b-adapt=2 / b-pyramid / bframe-bias=0 / rc-lookahead=40 / lookahead-slices=8 / scenecut=40 / hist-scenecut=0 / radl=0 / no-splice / no-intra-refresh / ctu=64 / min-cu-size=8 / no-rect / no-amp / max-tu-size=32 / tu-inter-depth=4 / tu-intra-depth=4 / limit-tu=4 / rdoq-level=0 / dynamic-rd=0.00 / no-ssim-rd / signhide / no-tskip / nr-intra=0 / nr-inter=0 / no-constrained-intra / strong-intra-smoothing / max-merge=4 / limit-refs=1 / no-limit-modes / me=1 / subme=5 / merange=57 / temporal-mvp / no-frame-dup / no-hme / weightp / weightb / no-analyze-src-pics / deblock=-3:-3 / no-sao / no-sao-non-deblock / rd=4 / selective-sao=0 / early-skip / rskip / no-fast-intra / no-tskip-fast / no-cu-lossless / b-intra / no-splitrd-skip / rdpenalty=0 / psy-rd=2.00 / psy-rdoq=0.00 / no-rd-refine / no-lossless / cbqpoffs=0 / crqpoffs=0 / rc=crf / crf=19.0 / qcomp=0.60 / qpstep=4 / stats-write=0 / stats-read=0 / vbv-maxrate=160000 / vbv-bufsize=160000 / vbv-init=0.9 / crf-max=0.0 / crf-min=0.0 / ipratio=1.25 / pbratio=1.15 / aq-mode=1 / aq-strength=0.80 / no-cutree / zone-count=0 / no-strict-cbr / qg-size=32 / no-rc-grain / qpmax=69 / qpmin=0 / no-const-vbv / sar=1 / overscan=0 / videoformat=5 / range=0 / colorprim=1 / transfer=1 / colormatrix=1 / chromaloc=0 / display-window=0 / cll=0,0 / min-luma=0 / max-luma=1023 / log2-max-poc-lsb=8 / vui-timing-info / vui-hrd-info / slices=1 / no-opt-qp-pps / no-opt-ref-list-length-pps / no-multi-pass-opt-rps / scenecut-bias=0.05 / hist-threshold=0.01 / no-opt-cu-delta-qp / no-aq-motion / no-hdr10 / no-hdr10-opt / no-dhdr10-opt / no-idr-recovery-sei / analysis-reuse-level=0 / analysis-save-reuse-level=0 / analysis-load-reuse-level=0 / scale-factor=0 / refine-intra=0 / refine-inter=0 / refine-mv=1 / refine-ctu-distortion=0 / no-limit-sao / ctu-info=0 / no-lowpass-dct / refine-analysis-type=0 / copy-pic=1 / max-ausize-factor=1.0 / no-dynamic-refine / no-single-sei / no-hevc-aq / no-svt / no-field / qp-adaptation-range=1.00 / no-scenecut-aware-qpconformance-window-offsets / right=0 / bottom=0 / decoder-max-rate=0
  21. Default : Yes
  22. Forced : No
  23. Color range : Limited
  24. Color primaries : BT.709
  25. Transfer characteristics : BT.709
  26. Matrix coefficients : BT.709

  27. Audio
  28. ID : 2
  29. Format : E-AC-3 JOC
  30. Format/Info : Enhanced AC-3 with Joint Object Coding
  31. Commercial name : Dolby Digital Plus with Dolby Atmos
  32. Codec ID : A_EAC3
  33. Duration : 1 h 3 min
  34. Bit rate mode : Constant
  35. Bit rate : 768 kb/s
  36. Channel(s) : 6 channels
  37. Channel layout : L R C LFE Ls Rs
  38. Sampling rate : 48.0 kHz
  39. Frame rate : 31.250 FPS (1536 SPF)
  40. Compression mode : Lossy
  41. Stream size : 347 MiB (3%)
  42. Title : English
  43. Language : English
  44. Service kind : Complete Main
  45. Default : Yes
  46. Forced : No
  47. Complexity index : 16
  48. Number of dynamic objects : 15
  49. Bed channel count : 1 channel
  50. Bed channel configuration : LFE

  51. Text #1
  52. ID : 3
  53. Format : UTF-8
  54. Codec ID : S_TEXT/UTF8
  55. Codec ID/Info : UTF-8 Plain Text
  56. Duration : 39 min 59 s
  57. Bit rate : 5 b/s
  58. Count of elements : 61
  59. Stream size : 1.70 KiB (0%)
  60. Title : Forced
  61. Language : English
  62. Default : Yes
  63. Forced : Yes

  64. Text #2
  65. ID : 4
  66. Format : UTF-8
  67. Codec ID : S_TEXT/UTF8
  68. Codec ID/Info : UTF-8 Plain Text
  69. Duration : 1 h 1 min
  70. Bit rate : 64 b/s
  71. Count of elements : 976
  72. Stream size : 29.4 KiB (0%)
  73. Title : SDH
  74. Language : English
  75. Default : No
  76. Forced : No

  77. Text #3
  78. ID : 5
  79. Format : UTF-8
  80. Codec ID : S_TEXT/UTF8
  81. Codec ID/Info : UTF-8 Plain Text
  82. Duration : 1 h 2 min
  83. Bit rate : 78 b/s
  84. Count of elements : 747
  85. Stream size : 35.6 KiB (0%)
  86. Language : Arabic
  87. Default : No
  88. Forced : No

  89. Text #4
  90. ID : 6
  91. Format : UTF-8
  92. Codec ID : S_TEXT/UTF8
  93. Codec ID/Info : UTF-8 Plain Text
  94. Duration : 1 h 2 min
  95. Bit rate : 44 b/s
  96. Count of elements : 730
  97. Stream size : 20.4 KiB (0%)
  98. Language : Czech
  99. Default : No
  100. Forced : No

  101. Text #5
  102. ID : 7
  103. Format : UTF-8
  104. Codec ID : S_TEXT/UTF8
  105. Codec ID/Info : UTF-8 Plain Text
  106. Duration : 1 h 2 min
  107. Bit rate : 46 b/s
  108. Count of elements : 641
  109. Stream size : 21.0 KiB (0%)
  110. Language : Danish
  111. Default : No
  112. Forced : No

  113. Text #6
  114. ID : 8
  115. Format : UTF-8
  116. Codec ID : S_TEXT/UTF8
  117. Codec ID/Info : UTF-8 Plain Text
  118. Duration : 1 h 2 min
  119. Bit rate : 47 b/s
  120. Count of elements : 697
  121. Stream size : 21.7 KiB (0%)
  122. Language : German
  123. Default : No
  124. Forced : No

  125. Text #7
  126. ID : 9
  127. Format : UTF-8
  128. Codec ID : S_TEXT/UTF8
  129. Codec ID/Info : UTF-8 Plain Text
  130. Duration : 1 h 0 min
  131. Bit rate : 83 b/s
  132. Count of elements : 728
  133. Stream size : 37.1 KiB (0%)
  134. Language : Greek
  135. Default : No
  136. Forced : No

  137. Text #8
  138. ID : 10
  139. Format : UTF-8
  140. Codec ID : S_TEXT/UTF8
  141. Codec ID/Info : UTF-8 Plain Text
  142. Duration : 1 h 2 min
  143. Bit rate : 44 b/s
  144. Count of elements : 652
  145. Stream size : 20.1 KiB (0%)
  146. Language : Spanish
  147. Default : No
  148. Forced : No

  149. Text #9
  150. ID : 11
  151. Format : UTF-8
  152. Codec ID : S_TEXT/UTF8
  153. Codec ID/Info : UTF-8 Plain Text
  154. Duration : 1 h 2 min
  155. Bit rate : 62 b/s
  156. Count of elements : 973
  157. Stream size : 28.4 KiB (0%)
  158. Title : European SDH
  159. Language : Spanish
  160. Default : No
  161. Forced : No

  162. Text #10
  163. ID : 12
  164. Format : UTF-8
  165. Codec ID : S_TEXT/UTF8
  166. Codec ID/Info : UTF-8 Plain Text
  167. Duration : 1 h 2 min
  168. Bit rate : 44 b/s
  169. Count of elements : 710
  170. Stream size : 20.3 KiB (0%)
  171. Language : Finnish
  172. Default : No
  173. Forced : No

  174. Text #11
  175. ID : 13
  176. Format : UTF-8
  177. Codec ID : S_TEXT/UTF8
  178. Codec ID/Info : UTF-8 Plain Text
  179. Duration : 1 h 2 min
  180. Bit rate : 48 b/s
  181. Count of elements : 721
  182. Stream size : 22.3 KiB (0%)
  183. Language : French
  184. Default : No
  185. Forced : No

  186. Text #12
  187. ID : 14
  188. Format : UTF-8
  189. Codec ID : S_TEXT/UTF8
  190. Codec ID/Info : UTF-8 Plain Text
  191. Duration : 1 h 2 min
  192. Bit rate : 74 b/s
  193. Count of elements : 748
  194. Stream size : 33.8 KiB (0%)
  195. Language : Hebrew
  196. Default : No
  197. Forced : No

  198. Text #13
  199. ID : 15
  200. Format : UTF-8
  201. Codec ID : S_TEXT/UTF8
  202. Codec ID/Info : UTF-8 Plain Text
  203. Duration : 1 h 0 min
  204. Bit rate : 50 b/s
  205. Count of elements : 694
  206. Stream size : 22.5 KiB (0%)
  207. Language : Hungarian
  208. Default : No
  209. Forced : No

  210. Text #14
  211. ID : 16
  212. Format : UTF-8
  213. Codec ID : S_TEXT/UTF8
  214. Codec ID/Info : UTF-8 Plain Text
  215. Duration : 1 h 2 min
  216. Bit rate : 48 b/s
  217. Count of elements : 749
  218. Stream size : 22.0 KiB (0%)
  219. Language : Indonesian
  220. Default : No
  221. Forced : No

  222. Text #15
  223. ID : 17
  224. Format : UTF-8
  225. Codec ID : S_TEXT/UTF8
  226. Codec ID/Info : UTF-8 Plain Text
  227. Duration : 1 h 2 min
  228. Bit rate : 46 b/s
  229. Count of elements : 678
  230. Stream size : 21.4 KiB (0%)
  231. Language : Italian
  232. Default : No
  233. Forced : No

  234. Text #16
  235. ID : 18
  236. Format : UTF-8
  237. Codec ID : S_TEXT/UTF8
  238. Codec ID/Info : UTF-8 Plain Text
  239. Duration : 1 h 2 min
  240. Bit rate : 46 b/s
  241. Count of elements : 729
  242. Stream size : 20.9 KiB (0%)
  243. Language : Japanese
  244. Default : No
  245. Forced : No

  246. Text #17
  247. ID : 19
  248. Format : UTF-8
  249. Codec ID : S_TEXT/UTF8
  250. Codec ID/Info : UTF-8 Plain Text
  251. Duration : 1 h 2 min
  252. Bit rate : 60 b/s
  253. Count of elements : 760
  254. Stream size : 27.3 KiB (0%)
  255. Language : Korean
  256. Default : No
  257. Forced : No

  258. Text #18
  259. ID : 20
  260. Format : UTF-8
  261. Codec ID : S_TEXT/UTF8
  262. Codec ID/Info : UTF-8 Plain Text
  263. Duration : 1 h 2 min
  264. Bit rate : 43 b/s
  265. Count of elements : 593
  266. Stream size : 20.0 KiB (0%)
  267. Language : Norwegian Bokmal
  268. Default : No
  269. Forced : No

  270. Text #19
  271. ID : 21
  272. Format : UTF-8
  273. Codec ID : S_TEXT/UTF8
  274. Codec ID/Info : UTF-8 Plain Text
  275. Duration : 1 h 2 min
  276. Bit rate : 45 b/s
  277. Count of elements : 639
  278. Stream size : 20.7 KiB (0%)
  279. Language : Dutch
  280. Default : No
  281. Forced : No

  282. Text #20
  283. ID : 22
  284. Format : UTF-8
  285. Codec ID : S_TEXT/UTF8
  286. Codec ID/Info : UTF-8 Plain Text
  287. Duration : 1 h 2 min
  288. Bit rate : 48 b/s
  289. Count of elements : 721
  290. Stream size : 21.9 KiB (0%)
  291. Language : Polish
  292. Default : No
  293. Forced : No

  294. Text #21
  295. ID : 23
  296. Format : UTF-8
  297. Codec ID : S_TEXT/UTF8
  298. Codec ID/Info : UTF-8 Plain Text
  299. Duration : 1 h 2 min
  300. Bit rate : 47 b/s
  301. Count of elements : 740
  302. Stream size : 21.4 KiB (0%)
  303. Language : Portuguese
  304. Default : No
  305. Forced : No

  306. Text #22
  307. ID : 24
  308. Format : UTF-8
  309. Codec ID : S_TEXT/UTF8
  310. Codec ID/Info : UTF-8 Plain Text
  311. Duration : 1 h 2 min
  312. Bit rate : 45 b/s
  313. Count of elements : 733
  314. Stream size : 20.8 KiB (0%)
  315. Title : Brazilian
  316. Language : Portuguese
  317. Default : No
  318. Forced : No

  319. Text #23
  320. ID : 25
  321. Format : UTF-8
  322. Codec ID : S_TEXT/UTF8
  323. Codec ID/Info : UTF-8 Plain Text
  324. Duration : 1 h 2 min
  325. Bit rate : 52 b/s
  326. Count of elements : 730
  327. Stream size : 24.0 KiB (0%)
  328. Language : Romanian
  329. Default : No
  330. Forced : No

  331. Text #24
  332. ID : 26
  333. Format : UTF-8
  334. Codec ID : S_TEXT/UTF8
  335. Codec ID/Info : UTF-8 Plain Text
  336. Duration : 1 h 2 min
  337. Bit rate : 74 b/s
  338. Count of elements : 800
  339. Stream size : 34.0 KiB (0%)
  340. Language : Russian
  341. Default : No
  342. Forced : No

  343. Text #25
  344. ID : 27
  345. Format : UTF-8
  346. Codec ID : S_TEXT/UTF8
  347. Codec ID/Info : UTF-8 Plain Text
  348. Duration : 1 h 2 min
  349. Bit rate : 50 b/s
  350. Count of elements : 742
  351. Stream size : 23.0 KiB (0%)
  352. Language : Swedish
  353. Default : No
  354. Forced : No

  355. Text #26
  356. ID : 28
  357. Format : UTF-8
  358. Codec ID : S_TEXT/UTF8
  359. Codec ID/Info : UTF-8 Plain Text
  360. Duration : 1 h 2 min
  361. Bit rate : 106 b/s
  362. Count of elements : 741
  363. Stream size : 48.5 KiB (0%)
  364. Language : Thai
  365. Default : No
  366. Forced : No

  367. Text #27
  368. ID : 29
  369. Format : UTF-8
  370. Codec ID : S_TEXT/UTF8
  371. Codec ID/Info : UTF-8 Plain Text
  372. Duration : 1 h 2 min
  373. Bit rate : 45 b/s
  374. Count of elements : 730
  375. Stream size : 20.8 KiB (0%)
  376. Language : Turkish
  377. Default : No
  378. Forced : No

  379. Text #28
  380. ID : 30
  381. Format : UTF-8
  382. Codec ID : S_TEXT/UTF8
  383. Codec ID/Info : UTF-8 Plain Text
  384. Duration : 1 h 2 min
  385. Bit rate : 63 b/s
  386. Count of elements : 749
  387. Stream size : 28.7 KiB (0%)
  388. Language : Vietnamese
  389. Default : No
  390. Forced : No

  391. Text #29
  392. ID : 31
  393. Format : UTF-8
  394. Codec ID : S_TEXT/UTF8
  395. Codec ID/Info : UTF-8 Plain Text
  396. Duration : 1 h 2 min
  397. Bit rate : 50 b/s
  398. Count of elements : 755
  399. Stream size : 23.0 KiB (0%)
  400. Title : Simplified
  401. Language : Chinese
  402. Default : No
  403. Forced : No

  404. Text #30
  405. ID : 32
  406. Format : UTF-8
  407. Codec ID : S_TEXT/UTF8
  408. Codec ID/Info : UTF-8 Plain Text
  409. Duration : 1 h 2 min
  410. Bit rate : 47 b/s
  411. Count of elements : 753
  412. Stream size : 21.4 KiB (0%)
  413. Title : Traditional
  414. Language : Chinese
  415. Default : No
  416. Forced : No
复制代码

白线4k White.Lines.S01.2160p.NF.WEBRip.DDP5.1.Atmos.x265电视剧下载
白线4k White.Lines.S01.2160p.NF.WEBRip.DDP5.1.Atmos.x265【85.08 GB】
白线4k White.Lines.S01.2160p.NF.WEBRip.DDP5.1.Atmos.x265-NTb[rartv].torrent
(213.99 KB)
回复

使用道具 举报

 

精彩评论3

倒序浏览
 
neworange 发表于 2020-5-24 11:32:12 | 显示全部楼层
谢谢分享
回复 支持 反对

使用道具 举报

 
sepkelly 发表于 2020-5-23 13:57:47 | 显示全部楼层
非常赞 谢谢
回复 支持 反对

使用道具 举报

 
您需要登录后才可以回帖 登录 | 立即注册

本版积分规则


0关注

67粉丝

175帖子

排行榜
社区广告

关注微信公众号第一时间推送精彩

官方微信

手机访问

Hao4K影音

专注4k家庭影音,提供家庭影音社区,家庭影音器材库,影音问答平台,影音商城,服务千万家庭影音用户。

本站内容部分由用户自主分享和转载自互联网,转载目的在于传递更多信息,并不代表本网赞同其观点和对其真实性负责。

如有侵权、违反国家法律政策行为,请联系我们,我们会第一时间及时清除和处理!

举报反馈邮箱:admin@hao4k.cn

Copyright   ©2019-2020  Hao4K影音粤公网安备 44030302001429号     ( 粤ICP备18155646号-1 )|网站地图