专注4K家庭影音, 服务千万家庭影音发烧友!

在线
客服

QQ咨询服务时间: 9:00-21:00

选择下列客服马上在线沟通:

快速
发帖

暂无
7*24小时客服服务热线

关注
微信

顶部

[美剧] 归途 第二季4k Homecoming.S02.2160p.AMZN.WEB-DL.x265.10bit.HDR.DDP5.1电视剧

大红色 发表于 2020-5-22 16:26:21 | 显示全部楼层
电视剧频道
电视剧封面:
电视剧名: 归途 第二季4k
年  代: 2020  
国  家: 美国
类  别: 惊悚 剧情 
语  言: 英语
字  幕: 英文原版
上映日期: 2020-05-22
文件格式: mkv    
视频效果: 4K(3840x2160)    
资源大小: 22.27 GB
片  长: 30 分钟
导  演: 凯尔·帕特里克·奥瓦内兹
剧情简介: 新一季的剧情据报会偏离原作播客的内容,引入新角色及演员。Janelle Monáe饰演一名固执的女子,醒来时发现自己在独木舟上漂浮,而且失去了为何来到此处﹑以及她是谁的记忆。
归家 / 归来/归途 第二季4k Homecoming.S02.2160p.AMZN.WEB-DL.x265.10bit.HDR.DDP5.1电视剧信息
  1. Video
  2. ID : 1
  3. Format : HEVC
  4. Format/Info : High Efficiency Video Coding
  5. Format profile : Main 10@L5@Main
  6. HDR format : SMPTE ST 2094 App 4, Version 0
  7. Codec ID : V_MPEGH/ISO/HEVC
  8. Duration : 37 min 22 s
  9. Bit rate : 13.9 Mb/s
  10. Width : 3 840 pixels
  11. Height : 2 160 pixels
  12. Display aspect ratio : 16:9
  13. Frame rate mode : Constant
  14. Frame rate : 23.976 (24000/1001) FPS
  15. Standard : NTSC
  16. Color space : YUV
  17. Chroma subsampling : 4:2:0 (Type 2)
  18. Bit depth : 10 bits
  19. Bits/(Pixel*Frame) : 0.070
  20. Stream size : 3.62 GiB (96%)
  21. Default : Yes
  22. Forced : No
  23. Color range : Limited
  24. Color primaries : BT.2020
  25. Transfer characteristics : PQ
  26. Matrix coefficients : BT.2020 non-constant
  27. Mastering display color primaries : Display P3
  28. Mastering display luminance : min: 0.0001 cd/m2, max: 1000 cd/m2
  29. Maximum Content Light Level : 1000 cd/m2
  30. Maximum Frame-Average Light Level : 209 cd/m2

  31. Audio
  32. ID : 2
  33. Format : E-AC-3
  34. Format/Info : Enhanced AC-3
  35. Commercial name : Dolby Digital Plus
  36. Codec ID : A_EAC3
  37. Duration : 37 min 22 s
  38. Bit rate mode : Constant
  39. Bit rate : 640 kb/s
  40. Channel(s) : 6 channels
  41. Channel layout : L R C LFE Ls Rs
  42. Sampling rate : 48.0 kHz
  43. Frame rate : 31.250 FPS (1536 SPF)
  44. Compression mode : Lossy
  45. Stream size : 171 MiB (4%)
  46. Title : English
  47. Language : English
  48. Service kind : Complete Main
  49. Default : Yes
  50. Forced : No

  51. Text #1
  52. ID : 3
  53. Format : UTF-8
  54. Codec ID : S_TEXT/UTF8
  55. Codec ID/Info : UTF-8 Plain Text
  56. Duration : 36 min 59 s
  57. Bit rate : 51 b/s
  58. Count of elements : 561
  59. Stream size : 13.9 KiB (0%)
  60. Title : English [SDH]
  61. Language : English
  62. Default : No
  63. Forced : No

  64. Text #2
  65. ID : 4
  66. Format : UTF-8
  67. Codec ID : S_TEXT/UTF8
  68. Codec ID/Info : UTF-8 Plain Text
  69. Duration : 33 min 20 s
  70. Bit rate : 64 b/s
  71. Count of elements : 352
  72. Stream size : 15.6 KiB (0%)
  73. Title : Arabic
  74. Language : Arabic
  75. Default : No
  76. Forced : No

  77. Text #3
  78. ID : 5
  79. Format : UTF-8
  80. Codec ID : S_TEXT/UTF8
  81. Codec ID/Info : UTF-8 Plain Text
  82. Duration : 33 min 20 s
  83. Bit rate : 40 b/s
  84. Count of elements : 348
  85. Stream size : 9.90 KiB (0%)
  86. Title : Danish
  87. Language : Danish
  88. Default : No
  89. Forced : No

  90. Text #4
  91. ID : 6
  92. Format : UTF-8
  93. Codec ID : S_TEXT/UTF8
  94. Codec ID/Info : UTF-8 Plain Text
  95. Duration : 32 min 49 s
  96. Bit rate : 42 b/s
  97. Count of elements : 276
  98. Stream size : 10.3 KiB (0%)
  99. Title : German
  100. Language : German
  101. Default : No
  102. Forced : No

  103. Text #5
  104. ID : 7
  105. Format : UTF-8
  106. Codec ID : S_TEXT/UTF8
  107. Codec ID/Info : UTF-8 Plain Text
  108. Duration : 33 min 20 s
  109. Bit rate : 40 b/s
  110. Count of elements : 349
  111. Stream size : 9.81 KiB (0%)
  112. Title : European Spanish
  113. Language : Spanish
  114. Default : No
  115. Forced : No

  116. Text #6
  117. ID : 8
  118. Format : UTF-8
  119. Codec ID : S_TEXT/UTF8
  120. Codec ID/Info : UTF-8 Plain Text
  121. Duration : 33 min 20 s
  122. Bit rate : 39 b/s
  123. Count of elements : 350
  124. Stream size : 9.66 KiB (0%)
  125. Title : Spanish
  126. Language : Spanish
  127. Default : No
  128. Forced : No

  129. Text #7
  130. ID : 9
  131. Format : UTF-8
  132. Codec ID : S_TEXT/UTF8
  133. Codec ID/Info : UTF-8 Plain Text
  134. Duration : 33 min 20 s
  135. Bit rate : 39 b/s
  136. Count of elements : 350
  137. Stream size : 9.69 KiB (0%)
  138. Title : Finnish
  139. Language : Finnish
  140. Default : No
  141. Forced : No

  142. Text #8
  143. ID : 10
  144. Format : UTF-8
  145. Codec ID : S_TEXT/UTF8
  146. Codec ID/Info : UTF-8 Plain Text
  147. Duration : 33 min 20 s
  148. Bit rate : 40 b/s
  149. Count of elements : 346
  150. Stream size : 9.85 KiB (0%)
  151. Title : French
  152. Language : French
  153. Default : No
  154. Forced : No

  155. Text #9
  156. ID : 11
  157. Format : UTF-8
  158. Codec ID : S_TEXT/UTF8
  159. Codec ID/Info : UTF-8 Plain Text
  160. Duration : 33 min 20 s
  161. Bit rate : 62 b/s
  162. Count of elements : 352
  163. Stream size : 15.2 KiB (0%)
  164. Title : Hebrew
  165. Language : Hebrew
  166. Default : No
  167. Forced : No

  168. Text #10
  169. ID : 12
  170. Format : UTF-8
  171. Codec ID : S_TEXT/UTF8
  172. Codec ID/Info : UTF-8 Plain Text
  173. Duration : 33 min 20 s
  174. Bit rate : 107 b/s
  175. Count of elements : 352
  176. Stream size : 26.3 KiB (0%)
  177. Title : Hindi
  178. Language : Hindi
  179. Default : No
  180. Forced : No

  181. Text #11
  182. ID : 13
  183. Format : UTF-8
  184. Codec ID : S_TEXT/UTF8
  185. Codec ID/Info : UTF-8 Plain Text
  186. Duration : 33 min 20 s
  187. Bit rate : 37 b/s
  188. Count of elements : 350
  189. Stream size : 9.09 KiB (0%)
  190. Title : Indonesian
  191. Language : Indonesian
  192. Default : No
  193. Forced : No

  194. Text #12
  195. ID : 14
  196. Format : UTF-8
  197. Codec ID : S_TEXT/UTF8
  198. Codec ID/Info : UTF-8 Plain Text
  199. Duration : 33 min 20 s
  200. Bit rate : 40 b/s
  201. Count of elements : 348
  202. Stream size : 9.83 KiB (0%)
  203. Title : Italian
  204. Language : Italian
  205. Default : No
  206. Forced : No

  207. Text #13
  208. ID : 15
  209. Format : UTF-8
  210. Codec ID : S_TEXT/UTF8
  211. Codec ID/Info : UTF-8 Plain Text
  212. Duration : 33 min 6 s
  213. Bit rate : 34 b/s
  214. Count of elements : 342
  215. Stream size : 8.41 KiB (0%)
  216. Title : Japanese
  217. Language : Japanese
  218. Default : No
  219. Forced : No

  220. Text #14
  221. ID : 16
  222. Format : UTF-8
  223. Codec ID : S_TEXT/UTF8
  224. Codec ID/Info : UTF-8 Plain Text
  225. Duration : 33 min 20 s
  226. Bit rate : 49 b/s
  227. Count of elements : 352
  228. Stream size : 12.1 KiB (0%)
  229. Title : Korean
  230. Language : Korean
  231. Default : No
  232. Forced : No

  233. Text #15
  234. ID : 17
  235. Format : UTF-8
  236. Codec ID : S_TEXT/UTF8
  237. Codec ID/Info : UTF-8 Plain Text
  238. Duration : 33 min 20 s
  239. Bit rate : 38 b/s
  240. Count of elements : 350
  241. Stream size : 9.34 KiB (0%)
  242. Title : Norwegian (Bokmål)
  243. Language : Norwegian Bokmal
  244. Default : No
  245. Forced : No

  246. Text #16
  247. ID : 18
  248. Format : UTF-8
  249. Codec ID : S_TEXT/UTF8
  250. Codec ID/Info : UTF-8 Plain Text
  251. Duration : 33 min 20 s
  252. Bit rate : 36 b/s
  253. Count of elements : 349
  254. Stream size : 8.91 KiB (0%)
  255. Title : Dutch
  256. Language : Dutch
  257. Default : No
  258. Forced : No

  259. Text #17
  260. ID : 19
  261. Format : UTF-8
  262. Codec ID : S_TEXT/UTF8
  263. Codec ID/Info : UTF-8 Plain Text
  264. Duration : 33 min 20 s
  265. Bit rate : 36 b/s
  266. Count of elements : 347
  267. Stream size : 8.87 KiB (0%)
  268. Title : Polish
  269. Language : Polish
  270. Default : No
  271. Forced : No

  272. Text #18
  273. ID : 20
  274. Format : UTF-8
  275. Codec ID : S_TEXT/UTF8
  276. Codec ID/Info : UTF-8 Plain Text
  277. Duration : 33 min 20 s
  278. Bit rate : 37 b/s
  279. Count of elements : 346
  280. Stream size : 9.22 KiB (0%)
  281. Title : Portuguese
  282. Language : Portuguese
  283. Default : No
  284. Forced : No

  285. Text #19
  286. ID : 21
  287. Format : UTF-8
  288. Codec ID : S_TEXT/UTF8
  289. Codec ID/Info : UTF-8 Plain Text
  290. Duration : 33 min 20 s
  291. Bit rate : 40 b/s
  292. Count of elements : 350
  293. Stream size : 9.80 KiB (0%)
  294. Title : Brazilian Portuguese
  295. Language : Portuguese
  296. Default : No
  297. Forced : No

  298. Text #20
  299. ID : 22
  300. Format : UTF-8
  301. Codec ID : S_TEXT/UTF8
  302. Codec ID/Info : UTF-8 Plain Text
  303. Duration : 33 min 20 s
  304. Bit rate : 68 b/s
  305. Count of elements : 351
  306. Stream size : 16.7 KiB (0%)
  307. Title : Russian
  308. Language : Russian
  309. Default : No
  310. Forced : No

  311. Text #21
  312. ID : 23
  313. Format : UTF-8
  314. Codec ID : S_TEXT/UTF8
  315. Codec ID/Info : UTF-8 Plain Text
  316. Duration : 33 min 20 s
  317. Bit rate : 41 b/s
  318. Count of elements : 347
  319. Stream size : 10.0 KiB (0%)
  320. Title : Swedish
  321. Language : Swedish
  322. Default : No
  323. Forced : No

  324. Text #22
  325. ID : 24
  326. Format : UTF-8
  327. Codec ID : S_TEXT/UTF8
  328. Codec ID/Info : UTF-8 Plain Text
  329. Duration : 33 min 20 s
  330. Bit rate : 126 b/s
  331. Count of elements : 352
  332. Stream size : 30.8 KiB (0%)
  333. Title : Tamil
  334. Language : Tamil
  335. Default : No
  336. Forced : No

  337. Text #23
  338. ID : 25
  339. Format : UTF-8
  340. Codec ID : S_TEXT/UTF8
  341. Codec ID/Info : UTF-8 Plain Text
  342. Duration : 33 min 20 s
  343. Bit rate : 107 b/s
  344. Count of elements : 352
  345. Stream size : 26.2 KiB (0%)
  346. Title : Telugu
  347. Language : Telugu
  348. Default : No
  349. Forced : No

  350. Text #24
  351. ID : 26
  352. Format : UTF-8
  353. Codec ID : S_TEXT/UTF8
  354. Codec ID/Info : UTF-8 Plain Text
  355. Duration : 33 min 20 s
  356. Bit rate : 95 b/s
  357. Count of elements : 352
  358. Stream size : 23.4 KiB (0%)
  359. Title : Thai
  360. Language : Thai
  361. Default : No
  362. Forced : No

  363. Text #25
  364. ID : 27
  365. Format : UTF-8
  366. Codec ID : S_TEXT/UTF8
  367. Codec ID/Info : UTF-8 Plain Text
  368. Duration : 33 min 20 s
  369. Bit rate : 38 b/s
  370. Count of elements : 349
  371. Stream size : 9.50 KiB (0%)
  372. Title : Turkish
  373. Language : Turkish
  374. Default : No
  375. Forced : No

  376. Text #26
  377. ID : 28
  378. Format : UTF-8
  379. Codec ID : S_TEXT/UTF8
  380. Codec ID/Info : UTF-8 Plain Text
  381. Duration : 33 min 20 s
  382. Bit rate : 38 b/s
  383. Count of elements : 352
  384. Stream size : 9.51 KiB (0%)
  385. Title : Chinese (Simplified)
  386. Language : Chinese
  387. Default : No
  388. Forced : No

  389. Text #27
  390. ID : 29
  391. Format : UTF-8
  392. Codec ID : S_TEXT/UTF8
  393. Codec ID/Info : UTF-8 Plain Text
  394. Duration : 33 min 20 s
  395. Bit rate : 38 b/s
  396. Count of elements : 352
  397. Stream size : 9.51 KiB (0%)
  398. Title : Chinese (Traditional)
  399. Language : Chinese
  400. Default : No
  401. Forced : No
复制代码

归家 / 归来/归途 第二季4k Homecoming.S02.2160p.AMZN.WEB-DL.x265.10bit.HDR.DDP5.1电视剧下载
归途 第二季4k Homecoming.S02.2160p.AMZN.WEB-DL.x265.10bit.HDR.DDP5.1【22.27 GB】
归途 第二季4k Homecoming.S02.2160p.AMZN.WEB-DL.x265.10bit.HDR.DDP5.1-GHOSTS[rartv].torrent
(56.66 KB)
回复

使用道具 举报

 
您需要登录后才可以回帖 登录 | 立即注册

本版积分规则


0关注

67粉丝

175帖子

排行榜
社区广告

关注微信公众号第一时间推送精彩

官方微信

手机访问

Hao4K影音

专注4k家庭影音,提供家庭影音社区,家庭影音器材库,影音问答平台,影音商城,服务千万家庭影音用户。

本站内容部分由用户自主分享和转载自互联网,转载目的在于传递更多信息,并不代表本网赞同其观点和对其真实性负责。

如有侵权、违反国家法律政策行为,请联系我们,我们会第一时间及时清除和处理!

举报反馈邮箱:admin@hao4k.cn

Copyright   ©2019-2020  Hao4K影音粤公网安备 44030302001429号     ( 粤ICP备18155646号-1 )|网站地图