专注4K家庭影音, 服务千万家庭影音发烧友!

[美剧] 黑色星期一 第二季4k Black.Monday.S02E01.2160p.WEB.H265电视剧

大红色 发表于 2020-5-26 17:37:34 | 显示全部楼层
电视剧频道
电视剧封面:
电视剧名: 黑色星期一 第二季4k
年  代: 2020  
国  家: 美国
类  别: 喜剧 
语  言: 英语
字  幕: 英文原版
上映日期: 2020-03-15
文件格式: mkv    
视频效果: 4K(3840x2160)    
资源大小: 3.29 GB
片  长: 30 分钟
导  演: 乔丹·卡汉 / 大卫·卡斯佩
剧情简介:  1987年10月19日“黑色星期一”,触发道指有史以来最大单日跌幅后,唐和布莱尔掌控狙阻者集团(The Jammer Group),却发现老板这位子不好坐——尤其是还要时刻提防与联邦调查局线人基斯一同跑路的前老板莫。
  谁会因股灾坐牢?谁会因谋杀入狱?谁又会因敲莫竹杠变身阶下囚?
黑色星期一 第二季4k Black.Monday.S02E01.2160p.WEB.H265电视剧信息
  1. Video
  2. ID : 1
  3. Format : HEVC
  4. Format/Info : High Efficiency Video Coding
  5. Format profile : Main 10@L5@Main
  6. Codec ID : V_MPEGH/ISO/HEVC
  7. Duration : 31 min 28 s
  8. Bit rate : 14.3 Mb/s
  9. Width : 3 840 pixels
  10. Height : 2 160 pixels
  11. Display aspect ratio : 16:9
  12. Frame rate mode : Constant
  13. Frame rate : 23.976 (24000/1001) FPS
  14. Color space : YUV
  15. Chroma subsampling : 4:2:0
  16. Bit depth : 10 bits
  17. Bits/(Pixel*Frame) : 0.072
  18. Stream size : 3.14 GiB (95%)
  19. Writing library : x265 3.0hy-RC:[Linux][GCC 7.5.0][64 bit] 10bit
  20. Encoding settings : cpuid=1111039 / frame-threads=1 / no-wpp / no-pmode / no-pme / no-psnr / no-ssim / log-level=2 / input-csp=1 / input-res=3840x2160 / interlace=0 / total-frames=0 / level-idc=0 / high-tier=1 / uhd-bd=0 / ref=4 / no-allow-non-conformance / repeat-headers / annexb / aud / hrd / info / hash=0 / no-temporal-layers / no-open-gop / min-keyint=48 / keyint=48 / gop-lookahead=0 / bframes=4 / b-adapt=2 / b-pyramid / bframe-bias=0 / rc-lookahead=48 / lookahead-slices=4 / scenecut=0 / radl=0 / no-splice / no-intra-refresh / ctu=64 / min-cu-size=8 / rect / no-amp / max-tu-size=32 / tu-inter-depth=1 / tu-intra-depth=1 / limit-tu=0 / rdoq-level=2 / dynamic-rd=0.00 / no-ssim-rd / signhide / no-tskip / nr-intra=100 / nr-inter=400 / no-constrained-intra / strong-intra-smoothing / max-merge=3 / limit-refs=3 / limit-modes / me=3 / subme=3 / merange=57 / temporal-mvp / no-hme / weightp / no-weightb / no-analyze-src-pics / deblock=0:0 / sao / no-sao-non-deblock / rd=4 / selective-sao=4 / no-early-skip / rskip / no-fast-intra / no-tskip-fast / no-cu-lossless / no-b-intra / no-splitrd-skip / rdpenalty=0 / psy-rd=0.00 / psy-rdoq=1.00 / no-rd-refine / no-lossless / cbqpoffs=0 / crqpoffs=0 / rc=abr / bitrate=15000 / qcomp=0.60 / qpstep=4 / stats-write=0 / stats-read=2 / cplxblur=20.0 / qblur=0.5 / vbv-maxrate=18000 / vbv-bufsize=12000 / vbv-init=0.6 / vbv-end=0.6 / vbv-end-fr-adj=0.0 / ipratio=1.40 / pbratio=1.30 / aq-mode=2 / aq-strength=1.00 / cutree / zone-count=0 / no-strict-cbr / qg-size=32 / no-rc-grain / qpmax=69 / qpmin=0 / no-const-vbv / sar=1 / overscan=0 / videoformat=5 / range=0 / colorprim=1 / transfer=1 / colormatrix=1 / chromaloc=0 / display-window=0 / cll=0,0 / min-luma=0 / max-luma=1023 / log2-max-poc-lsb=8 / vui-timing-info / vui-hrd-info / no-concatenation / slices=1 / no-opt-qp-pps / no-opt-ref-list-length-pps / no-multi-pass-opt-rps / scenecut-bias=0.05 / no-opt-cu-delta-qp / no-aq-motion / no-hdr / no-hdr-opt / no-dhdr10-opt / no-idr-recovery-sei / analysis-reuse-level=5 / scale-factor=0 / refine-intra=0 / refine-inter=0 / refine-mv=1 / refine-ctu-distortion=0 / no-limit-sao / ctu-info=0 / no-lowpass-dct / refine-analysis-type=0 / copy-pic=1 / max-ausize-factor=1.0 / no-dynamic-refine / no-single-sei / no-hevc-aq / no-svt / no-field / qp-adaptation-range=1.00
  21. Language : English
  22. Default : Yes
  23. Forced : No
  24. Color range : Limited
  25. Color primaries : BT.709
  26. Transfer characteristics : BT.709
  27. Matrix coefficients : BT.709
  28. Statistics Tags Issue : no_variable_data 1970-01-01 00:00:00 / no_variable_data 2010-02-22 21:41:29
  29. FromStats_BitRate : 14571804
  30. FromStats_Duration : 00:31:28.512000000
  31. FromStats_FrameCount : 45279
  32. FromStats_StreamSize : 3439878456

  33. Audio
  34. ID : 2
  35. Format : AC-3
  36. Format/Info : Audio Coding 3
  37. Commercial name : Dolby Digital
  38. Codec ID : A_AC3
  39. Duration : 31 min 28 s
  40. Bit rate mode : Constant
  41. Bit rate : 384 kb/s
  42. Channel(s) : 6 channels
  43. Channel layout : L R C LFE Ls Rs
  44. Sampling rate : 48.0 kHz
  45. Frame rate : 31.250 FPS (1536 SPF)
  46. Bit depth : 16 bits
  47. Compression mode : Lossy
  48. Stream size : 86.4 MiB (3%)
  49. Language : English
  50. Service kind : Complete Main
  51. Default : Yes
  52. Forced : No
  53. Statistics Tags Issue : no_variable_data 1970-01-01 00:00:00 / no_variable_data 2010-02-22 21:41:29
  54. FromStats_BitRate : 384000
  55. FromStats_Duration : 00:31:28.480000000
  56. FromStats_FrameCount : 59015
  57. FromStats_StreamSize : 90647040
复制代码

黑色星期一 第二季4k Black.Monday.S02E01.2160p.WEB.H265电视剧下载

黑色星期一 第二季4k Black.Monday.S02.2160p.WEB.H265【30.02 GB】
黑色星期一 第二季4k Black.Monday.S02.2160p.WEB.H265-MIXED[rartv].torrent
(76.26 KB)
回复

使用道具 举报

发烧友评论2

倒序浏览
大红色 发表于 2020-6-8 23:29:11 | 显示全部楼层
bino118 发表于 2020-5-27 11:38
感谢楼主分享,片子不错

感谢支持 啊
回复 支持 反对

使用道具 举报

您需要登录后才可以回帖 登录 | 立即注册

本版积分规则

在线客服

在线客服

服务时间 9:00—18:00

返回顶部

关注微信公众号第一时间推送精彩

官方微信

手机访问

Hao4K影音

专注4k家庭影音,提供家庭影音社区,家庭影音器材库,影音问答平台,影音商城,服务千万家庭影音用户。

本站内容部分由用户自主分享和转载自互联网,转载目的在于传递更多信息,并不代表本网赞同其观点和对其真实性负责。

如有侵权、违反国家法律政策行为,请联系我们,我们会第一时间及时清除和处理!

举报反馈邮箱:admin@hao4k.cn

Copyright  2019-2020  Hao4K影音粤公网安备 44030302001429号    ( 粤ICP备18155646号-1 )|网站地图