专注4K家庭影音, 服务千万家庭影音发烧友!

史酷比狗4k Scoob.2020.2160p.WEBRiP.x265电影资源下载

 关闭
老顽童 发表于 2020-5-28 21:38:48 | 显示全部楼层
电影频道
电影封面:
片  名: 史酷比狗4k
电影分类: 冒险 喜剧 动画 
国  家: 美国 
年  代: 2020年
分 辨 率: 4K(3840x2160)
电影格式: MKV|REMUX 
画质标准: 其他 
音质编码: Dolby Digital Plus Audio 
电影声道: 其他 
帧数/FPS: FPS
电影语言: 英文原版 
资源大小: 16.60 GB
导  演: 托尼·塞沃恩
豆瓣评分: 5.1 分
中文字幕: -
剧情简介: 《史酷比狗》是史酷比狗的第一部大银幕动画冒险长片,讲述了史酷比不为人知的起源故事,以及神秘公司史上最精彩的惊世秘案。
  《史酷比狗》演绎了史酷比与其一生挚友夏奇的初次相遇,以及他们如何与少年侦探弗雷德、维尔玛和达芙妮一起组建了世界著名的神秘公司。如今,神秘公司已经解决了数百起谜案、进行了无数次冒险,但史酷比和他的同伴们发现,他们正面临有史以来最惊险、最具挑战性的神秘案件:一个将“幽灵狗”塞伯勒斯释放回世上的阴谋。当他们拼命努力想要阻止这一全球性大灾难之时,他们也发现了史酷比的秘密身世,以及他超乎想象的神秘命运。
史酷比大电影 / S.C.O.O.B/史酷比狗4k Scoob.2020.2160p.WEBRiP.x265电影信息
  1. Video
  2. ID : 3
  3. Format : HEVC
  4. Format/Info : High Efficiency Video Coding
  5. Format profile : Main 10@L5.1@High
  6. Codec ID : V_MPEGH/ISO/HEVC
  7. Duration : 1 h 33 min
  8. Bit rate : 24.7 Mb/s
  9. Width : 3 840 pixels
  10. Height : 1 608 pixels
  11. Display aspect ratio : 2.40:1
  12. Frame rate mode : Constant
  13. Frame rate : 23.976 (24000/1001) FPS
  14. Color space : YUV
  15. Chroma subsampling : 4:2:0
  16. Bit depth : 10 bits
  17. Bits/(Pixel*Frame) : 0.167
  18. Stream size : 16.2 GiB (97%)
  19. Writing library : x265 3.3+31-d5695e28999e:[Windows][GCC 6.3.0][64 bit] 10bit
  20. Encoding settings : cpuid=1176575 / frame-threads=5 / numa-pools=36 / wpp / pmode / no-pme / no-psnr / no-ssim / log-level=2 / input-csp=1 / input-res=3840x1608 / interlace=0 / total-frames=0 / level-idc=51 / high-tier=1 / uhd-bd=0 / ref=4 / no-allow-non-conformance / repeat-headers / annexb / aud / hrd / info / hash=0 / no-temporal-layers / no-open-gop / min-keyint=23 / keyint=250 / gop-lookahead=0 / bframes=4 / b-adapt=2 / b-pyramid / bframe-bias=0 / rc-lookahead=25 / lookahead-slices=4 / scenecut=40 / hist-scenecut=0 / radl=0 / no-splice / no-intra-refresh / ctu=64 / min-cu-size=8 / rect / no-amp / max-tu-size=32 / tu-inter-depth=1 / tu-intra-depth=1 / limit-tu=0 / rdoq-level=2 / dynamic-rd=0.00 / no-ssim-rd / signhide / no-tskip / nr-intra=0 / nr-inter=0 / no-constrained-intra / strong-intra-smoothing / max-merge=3 / limit-refs=0 / limit-modes / me=3 / subme=3 / merange=57 / temporal-mvp / no-frame-dup / no-hme / weightp / no-weightb / no-analyze-src-pics / deblock=-3:-3 / no-sao / no-sao-non-deblock / rd=4 / selective-sao=0 / no-early-skip / rskip / no-fast-intra / no-tskip-fast / no-cu-lossless / no-b-intra / no-splitrd-skip / rdpenalty=0 / psy-rd=2.00 / psy-rdoq=1.00 / no-rd-refine / no-lossless / cbqpoffs=0 / crqpoffs=0 / rc=crf / crf=15.5 / qcomp=0.60 / qpstep=4 / stats-write=0 / stats-read=0 / vbv-maxrate=160000 / vbv-bufsize=160000 / vbv-init=0.9 / crf-max=0.0 / crf-min=0.0 / ipratio=1.40 / pbratio=1.30 / aq-mode=4 / aq-strength=1.00 / no-cutree / zone-count=0 / no-strict-cbr / qg-size=32 / no-rc-grain / qpmax=69 / qpmin=0 / no-const-vbv / sar=1 / overscan=0 / videoformat=5 / range=0 / colorprim=2 / transfer=2 / colormatrix=2 / chromaloc=0 / display-window=0 / cll=0,0 / min-luma=0 / max-luma=1023 / log2-max-poc-lsb=8 / vui-timing-info / vui-hrd-info / slices=1 / no-opt-qp-pps / no-opt-ref-list-length-pps / no-multi-pass-opt-rps / scenecut-bias=0.05 / hist-threshold=0.01 / no-opt-cu-delta-qp / no-aq-motion / no-hdr10 / no-hdr10-opt / no-dhdr10-opt / no-idr-recovery-sei / analysis-reuse-level=0 / analysis-save-reuse-level=0 / analysis-load-reuse-level=0 / scale-factor=0 / refine-intra=0 / refine-inter=0 / refine-mv=1 / refine-ctu-distortion=0 / no-limit-sao / ctu-info=0 / no-lowpass-dct / refine-analysis-type=0 / copy-pic=1 / max-ausize-factor=1.0 / no-dynamic-refine / no-single-sei / no-hevc-aq / no-svt / no-field / qp-adaptation-range=1.00 / no-scenecut-aware-qpconformance-window-offsets / right=0 / bottom=0 / decoder-max-rate=0
  21. Language : English
  22. Default : Yes
  23. Forced : No

  24. Audio
  25. ID : 1
  26. Format : E-AC-3
  27. Format/Info : Enhanced AC-3
  28. Commercial name : Dolby Digital Plus
  29. Codec ID : A_EAC3
  30. Duration : 1 h 33 min
  31. Bit rate mode : Constant
  32. Bit rate : 640 kb/s
  33. Channel(s) : 6 channels
  34. Channel layout : L R C LFE Ls Rs
  35. Sampling rate : 48.0 kHz
  36. Frame rate : 31.250 FPS (1536 SPF)
  37. Compression mode : Lossy
  38. Delay relative to video : 40 ms
  39. Stream size : 429 MiB (3%)
  40. Language : English
  41. Service kind : Complete Main
  42. Default : Yes
  43. Forced : No

  44. Text
  45. ID : 2
  46. Format : UTF-8
  47. Codec ID : S_TEXT/UTF8
  48. Codec ID/Info : UTF-8 Plain Text
  49. Duration : 1 h 33 min
  50. Bit rate : 75 b/s
  51. Count of elements : 1882
  52. Stream size : 51.8 KiB (0%)
  53. Title : English
  54. Language : English
  55. Default : Yes
  56. Forced : No
复制代码

史酷比大电影 / S.C.O.O.B/史酷比狗4k Scoob.2020.2160p.WEBRiP.x265电影下载
史酷比狗4k Scoob.2020.2160p.WEBRiP.x265【16.60 GB】
[Hao4k]史酷比狗4k Scoob.2020.2160p.WEBRiP.x265-PETRiFiED.torrent
(83.66 KB)
回复

使用道具 举报

您需要登录后才可以回帖 登录 | 立即注册

本版积分规则

在线客服

在线客服

服务时间 9:00—18:00

返回顶部

关注微信公众号第一时间推送精彩

官方微信

手机访问

Hao4K影音

专注4k家庭影音,提供家庭影音社区,家庭影音器材库,影音问答平台,影音商城,服务千万家庭影音用户。

本站内容部分由用户自主分享和转载自互联网,转载目的在于传递更多信息,并不代表本网赞同其观点和对其真实性负责。

如有侵权、违反国家法律政策行为,请联系我们,我们会第一时间及时清除和处理!

举报反馈邮箱:admin@hao4k.cn

Copyright  2019-2020  Hao4K影音粤公网安备 44030302001429号    ( 粤ICP备18155646号-1 )|网站地图