专注4K家庭影音, 服务千万家庭影音发烧友!

在线
客服

QQ咨询服务时间: 9:00-21:00

选择下列客服马上在线沟通:

快速
发帖

暂无
7*24小时客服服务热线

关注
微信

顶部

[美剧] 中央公园4k Central.Park.S01E01.2160p.WEB.H265电视剧

大红色 发表于 2020-5-29 20:34:47 | 显示全部楼层
电视剧频道
电视剧封面:
电视剧名: 中央公园4k
年  代: 2020  
国  家: -
类  别: 喜剧 
语  言: -
字  幕: 英文原版
上映日期: 2020-05-29
文件格式: mkv    
视频效果: 4K(3840x2160)    
资源大小: 2.81 GB
片  长: 暂无 分钟
导  演: 乔什·加德 / Loren Bouchard
剧情简介: 苹果预订首部动画剧集《中央公园》(Central Park,暂译)。该剧两季,每季13集,洛伦·鲍查德(《开心汉堡店》)联手福斯TV打造,鲍查德、乔什·加德任编剧。故事围绕以中央公园为家并在那里工作的一家人展开。配音卡司包括克里斯汀·贝尔、乔什·加德、斯坦利·图齐、戴维德·迪格斯、小莱斯利·奥多姆、凯瑟琳·哈恩。
中央公园4k Central.Park.S01E01.2160p.WEB.H265电视剧信息
  1. Video
  2. ID : 1
  3. Format : HEVC
  4. Format/Info : High Efficiency Video Coding
  5. Format profile : Main 10@L5@High
  6. Codec ID : V_MPEGH/ISO/HEVC
  7. Duration : 24 min 48 s
  8. Bit rate : 15.4 Mb/s
  9. Width : 3 840 pixels
  10. Height : 2 160 pixels
  11. Display aspect ratio : 16:9
  12. Frame rate mode : Constant
  13. Frame rate : 23.976 (24000/1001) FPS
  14. Color space : YUV
  15. Chroma subsampling : 4:2:0
  16. Bit depth : 10 bits
  17. Bits/(Pixel*Frame) : 0.078
  18. Stream size : 2.67 GiB (95%)
  19. Default : Yes
  20. Forced : No
  21. Color range : Limited
  22. Color primaries : BT.709
  23. Transfer characteristics : BT.709
  24. Matrix coefficients : BT.709

  25. Audio
  26. ID : 2
  27. Format : E-AC-3 JOC
  28. Format/Info : Enhanced AC-3 with Joint Object Coding
  29. Commercial name : Dolby Digital Plus with Dolby Atmos
  30. Codec ID : A_EAC3
  31. Duration : 24 min 48 s
  32. Bit rate mode : Constant
  33. Bit rate : 768 kb/s
  34. Channel(s) : 6 channels
  35. Channel layout : L R C LFE Ls Rs
  36. Sampling rate : 48.0 kHz
  37. Frame rate : 31.250 FPS (1536 SPF)
  38. Compression mode : Lossy
  39. Stream size : 136 MiB (5%)
  40. Title : English
  41. Language : English
  42. Service kind : Complete Main
  43. Default : Yes
  44. Forced : No
  45. Complexity index : 16
  46. Number of dynamic objects : 15
  47. Bed channel count : 1 channel
  48. Bed channel configuration : LFE

  49. Text #1
  50. ID : 3
  51. Format : UTF-8
  52. Codec ID : S_TEXT/UTF8
  53. Codec ID/Info : UTF-8 Plain Text
  54. Duration : 24 min 26 s
  55. Bit rate : 115 b/s
  56. Count of elements : 574
  57. Stream size : 20.7 KiB (0%)
  58. Title : English
  59. Language : English
  60. Default : No
  61. Forced : No

  62. Text #2
  63. ID : 4
  64. Format : UTF-8
  65. Codec ID : S_TEXT/UTF8
  66. Codec ID/Info : UTF-8 Plain Text
  67. Duration : 24 min 33 s
  68. Bit rate : 130 b/s
  69. Count of elements : 599
  70. Stream size : 23.6 KiB (0%)
  71. Title : English [SDH]
  72. Language : English
  73. Default : No
  74. Forced : No

  75. Text #3
  76. ID : 5
  77. Format : UTF-8
  78. Codec ID : S_TEXT/UTF8
  79. Codec ID/Info : UTF-8 Plain Text
  80. Duration : 24 min 32 s
  81. Bit rate : 180 b/s
  82. Count of elements : 583
  83. Stream size : 32.5 KiB (0%)
  84. Title : Arabic
  85. Language : Arabic
  86. Default : No
  87. Forced : No

  88. Text #4
  89. ID : 6
  90. Format : UTF-8
  91. Codec ID : S_TEXT/UTF8
  92. Codec ID/Info : UTF-8 Plain Text
  93. Duration : 24 min 32 s
  94. Bit rate : 155 b/s
  95. Count of elements : 583
  96. Stream size : 27.9 KiB (0%)
  97. Title : Bulgarian
  98. Language : Bulgarian
  99. Default : No
  100. Forced : No

  101. Text #5
  102. ID : 7
  103. Format : UTF-8
  104. Codec ID : S_TEXT/UTF8
  105. Codec ID/Info : UTF-8 Plain Text
  106. Duration : 24 min 32 s
  107. Bit rate : 103 b/s
  108. Count of elements : 581
  109. Stream size : 18.5 KiB (0%)
  110. Title : Czech
  111. Language : Czech
  112. Default : No
  113. Forced : No

  114. Text #6
  115. ID : 8
  116. Format : UTF-8
  117. Codec ID : S_TEXT/UTF8
  118. Codec ID/Info : UTF-8 Plain Text
  119. Duration : 24 min 28 s
  120. Bit rate : 115 b/s
  121. Count of elements : 580
  122. Stream size : 20.6 KiB (0%)
  123. Title : Danish
  124. Language : Danish
  125. Default : No
  126. Forced : No

  127. Text #7
  128. ID : 9
  129. Format : UTF-8
  130. Codec ID : S_TEXT/UTF8
  131. Codec ID/Info : UTF-8 Plain Text
  132. Duration : 24 min 28 s
  133. Bit rate : 96 b/s
  134. Count of elements : 577
  135. Stream size : 17.3 KiB (0%)
  136. Title : Dutch
  137. Language : Dutch
  138. Default : No
  139. Forced : No

  140. Text #8
  141. ID : 10
  142. Format : UTF-8
  143. Codec ID : S_TEXT/UTF8
  144. Codec ID/Info : UTF-8 Plain Text
  145. Duration : 24 min 32 s
  146. Bit rate : 99 b/s
  147. Count of elements : 582
  148. Stream size : 17.8 KiB (0%)
  149. Title : Estonian
  150. Language : Estonian
  151. Default : No
  152. Forced : No

  153. Text #9
  154. ID : 11
  155. Format : UTF-8
  156. Codec ID : S_TEXT/UTF8
  157. Codec ID/Info : UTF-8 Plain Text
  158. Duration : 24 min 32 s
  159. Bit rate : 107 b/s
  160. Count of elements : 583
  161. Stream size : 19.4 KiB (0%)
  162. Title : Finnish
  163. Language : Finnish
  164. Default : No
  165. Forced : No

  166. Text #10
  167. ID : 12
  168. Format : UTF-8
  169. Codec ID : S_TEXT/UTF8
  170. Codec ID/Info : UTF-8 Plain Text
  171. Duration : 24 min 29 s
  172. Bit rate : 101 b/s
  173. Count of elements : 550
  174. Stream size : 18.3 KiB (0%)
  175. Title : French
  176. Language : French
  177. Default : No
  178. Forced : No

  179. Text #11
  180. ID : 13
  181. Format : UTF-8
  182. Codec ID : S_TEXT/UTF8
  183. Codec ID/Info : UTF-8 Plain Text
  184. Duration : 24 min 29 s
  185. Bit rate : 101 b/s
  186. Count of elements : 550
  187. Stream size : 18.3 KiB (0%)
  188. Title : French Canadian
  189. Language : French
  190. Default : No
  191. Forced : No

  192. Text #12
  193. ID : 14
  194. Format : UTF-8
  195. Codec ID : S_TEXT/UTF8
  196. Codec ID/Info : UTF-8 Plain Text
  197. Duration : 24 min 29 s
  198. Bit rate : 101 b/s
  199. Count of elements : 550
  200. Stream size : 18.3 KiB (0%)
  201. Title : Canadian French
  202. Language : French
  203. Default : No
  204. Forced : No

  205. Text #13
  206. ID : 15
  207. Format : UTF-8
  208. Codec ID : S_TEXT/UTF8
  209. Codec ID/Info : UTF-8 Plain Text
  210. Duration : 24 min 29 s
  211. Bit rate : 113 b/s
  212. Count of elements : 570
  213. Stream size : 20.4 KiB (0%)
  214. Title : German
  215. Language : German
  216. Default : No
  217. Forced : No

  218. Text #14
  219. ID : 16
  220. Format : UTF-8
  221. Codec ID : S_TEXT/UTF8
  222. Codec ID/Info : UTF-8 Plain Text
  223. Duration : 24 min 32 s
  224. Bit rate : 188 b/s
  225. Count of elements : 581
  226. Stream size : 33.8 KiB (0%)
  227. Title : Greek
  228. Language : Greek
  229. Default : No
  230. Forced : No

  231. Text #15
  232. ID : 17
  233. Format : UTF-8
  234. Codec ID : S_TEXT/UTF8
  235. Codec ID/Info : UTF-8 Plain Text
  236. Duration : 24 min 32 s
  237. Bit rate : 157 b/s
  238. Count of elements : 584
  239. Stream size : 28.2 KiB (0%)
  240. Title : Hebrew
  241. Language : Hebrew
  242. Default : No
  243. Forced : No

  244. Text #16
  245. ID : 18
  246. Format : UTF-8
  247. Codec ID : S_TEXT/UTF8
  248. Codec ID/Info : UTF-8 Plain Text
  249. Duration : 24 min 32 s
  250. Bit rate : 303 b/s
  251. Count of elements : 585
  252. Stream size : 54.5 KiB (0%)
  253. Title : Hindi
  254. Language : Hindi
  255. Default : No
  256. Forced : No

  257. Text #17
  258. ID : 19
  259. Format : UTF-8
  260. Codec ID : S_TEXT/UTF8
  261. Codec ID/Info : UTF-8 Plain Text
  262. Duration : 24 min 32 s
  263. Bit rate : 106 b/s
  264. Count of elements : 581
  265. Stream size : 19.2 KiB (0%)
  266. Title : Hungarian
  267. Language : Hungarian
  268. Default : No
  269. Forced : No

  270. Text #18
  271. ID : 20
  272. Format : UTF-8
  273. Codec ID : S_TEXT/UTF8
  274. Codec ID/Info : UTF-8 Plain Text
  275. Duration : 24 min 32 s
  276. Bit rate : 117 b/s
  277. Count of elements : 583
  278. Stream size : 21.1 KiB (0%)
  279. Title : Indonesian
  280. Language : Indonesian
  281. Default : No
  282. Forced : No

  283. Text #19
  284. ID : 21
  285. Format : UTF-8
  286. Codec ID : S_TEXT/UTF8
  287. Codec ID/Info : UTF-8 Plain Text
  288. Duration : 24 min 29 s
  289. Bit rate : 115 b/s
  290. Count of elements : 503
  291. Stream size : 20.7 KiB (0%)
  292. Title : Italian
  293. Language : Italian
  294. Default : No
  295. Forced : No

  296. Text #20
  297. ID : 22
  298. Format : UTF-8
  299. Codec ID : S_TEXT/UTF8
  300. Codec ID/Info : UTF-8 Plain Text
  301. Duration : 24 min 29 s
  302. Bit rate : 88 b/s
  303. Count of elements : 522
  304. Stream size : 15.9 KiB (0%)
  305. Title : Japanese
  306. Language : Japanese
  307. Default : No
  308. Forced : No

  309. Text #21
  310. ID : 23
  311. Format : UTF-8
  312. Codec ID : S_TEXT/UTF8
  313. Codec ID/Info : UTF-8 Plain Text
  314. Duration : 24 min 32 s
  315. Bit rate : 116 b/s
  316. Count of elements : 582
  317. Stream size : 21.0 KiB (0%)
  318. Title : Lithuanian
  319. Language : Lithuanian
  320. Default : No
  321. Forced : No

  322. Text #22
  323. ID : 24
  324. Format : UTF-8
  325. Codec ID : S_TEXT/UTF8
  326. Codec ID/Info : UTF-8 Plain Text
  327. Duration : 24 min 32 s
  328. Bit rate : 110 b/s
  329. Count of elements : 583
  330. Stream size : 19.8 KiB (0%)
  331. Title : Latvian
  332. Language : Latvian
  333. Default : No
  334. Forced : No

  335. Text #23
  336. ID : 25
  337. Format : UTF-8
  338. Codec ID : S_TEXT/UTF8
  339. Codec ID/Info : UTF-8 Plain Text
  340. Duration : 24 min 32 s
  341. Bit rate : 116 b/s
  342. Count of elements : 583
  343. Stream size : 20.9 KiB (0%)
  344. Title : Malay
  345. Language : Malay
  346. Default : No
  347. Forced : No

  348. Text #24
  349. ID : 26
  350. Format : UTF-8
  351. Codec ID : S_TEXT/UTF8
  352. Codec ID/Info : UTF-8 Plain Text
  353. Duration : 24 min 32 s
  354. Bit rate : 103 b/s
  355. Count of elements : 584
  356. Stream size : 18.7 KiB (0%)
  357. Title : Simplified Chinese
  358. Language : Chinese
  359. Default : No
  360. Forced : No

  361. Text #25
  362. ID : 27
  363. Format : UTF-8
  364. Codec ID : S_TEXT/UTF8
  365. Codec ID/Info : UTF-8 Plain Text
  366. Duration : 24 min 32 s
  367. Bit rate : 105 b/s
  368. Count of elements : 585
  369. Stream size : 18.9 KiB (0%)
  370. Title : Traditional Chinese
  371. Language : Chinese
  372. Default : No
  373. Forced : No

  374. Text #26
  375. ID : 28
  376. Format : UTF-8
  377. Codec ID : S_TEXT/UTF8
  378. Codec ID/Info : UTF-8 Plain Text
  379. Duration : 24 min 32 s
  380. Bit rate : 102 b/s
  381. Count of elements : 585
  382. Stream size : 18.3 KiB (0%)
  383. Title : (Yue Chinese)
  384. Language : Chinese
  385. Default : No
  386. Forced : No

  387. Text #27
  388. ID : 29
  389. Format : UTF-8
  390. Codec ID : S_TEXT/UTF8
  391. Codec ID/Info : UTF-8 Plain Text
  392. Duration : 24 min 32 s
  393. Bit rate : 112 b/s
  394. Count of elements : 582
  395. Stream size : 20.2 KiB (0%)
  396. Title : Norwegian
  397. Language : Norwegian
  398. Default : No
  399. Forced : No

  400. Text #28
  401. ID : 30
  402. Format : UTF-8
  403. Codec ID : S_TEXT/UTF8
  404. Codec ID/Info : UTF-8 Plain Text
  405. Duration : 24 min 32 s
  406. Bit rate : 102 b/s
  407. Count of elements : 581
  408. Stream size : 18.4 KiB (0%)
  409. Title : Polish
  410. Language : Polish
  411. Default : No
  412. Forced : No

  413. Text #29
  414. ID : 31
  415. Format : UTF-8
  416. Codec ID : S_TEXT/UTF8
  417. Codec ID/Info : UTF-8 Plain Text
  418. Duration : 24 min 32 s
  419. Bit rate : 117 b/s
  420. Count of elements : 581
  421. Stream size : 21.1 KiB (0%)
  422. Title : Portuguese
  423. Language : Portuguese
  424. Default : No
  425. Forced : No

  426. Text #30
  427. ID : 32
  428. Format : UTF-8
  429. Codec ID : S_TEXT/UTF8
  430. Codec ID/Info : UTF-8 Plain Text
  431. Duration : 24 min 32 s
  432. Bit rate : 105 b/s
  433. Count of elements : 582
  434. Stream size : 19.0 KiB (0%)
  435. Title : Brazilian Portuguese
  436. Language : Portuguese
  437. Default : No
  438. Forced : No

  439. Text #31
  440. ID : 33
  441. Format : UTF-8
  442. Codec ID : S_TEXT/UTF8
  443. Codec ID/Info : UTF-8 Plain Text
  444. Duration : 24 min 32 s
  445. Bit rate : 172 b/s
  446. Count of elements : 585
  447. Stream size : 31.0 KiB (0%)
  448. Title : Russian
  449. Language : Russian
  450. Default : No
  451. Forced : No

  452. Text #32
  453. ID : 34
  454. Format : UTF-8
  455. Codec ID : S_TEXT/UTF8
  456. Codec ID/Info : UTF-8 Plain Text
  457. Duration : 24 min 28 s
  458. Bit rate : 103 b/s
  459. Count of elements : 581
  460. Stream size : 18.6 KiB (0%)
  461. Title : Slovak
  462. Language : Slovak
  463. Default : No
  464. Forced : No

  465. Text #33
  466. ID : 35
  467. Format : UTF-8
  468. Codec ID : S_TEXT/UTF8
  469. Codec ID/Info : UTF-8 Plain Text
  470. Duration : 24 min 32 s
  471. Bit rate : 88 b/s
  472. Count of elements : 583
  473. Stream size : 16.0 KiB (0%)
  474. Title : Slovenian
  475. Language : Slovenian
  476. Default : No
  477. Forced : No

  478. Text #34
  479. ID : 36
  480. Format : UTF-8
  481. Codec ID : S_TEXT/UTF8
  482. Codec ID/Info : UTF-8 Plain Text
  483. Duration : 24 min 28 s
  484. Bit rate : 109 b/s
  485. Count of elements : 578
  486. Stream size : 19.6 KiB (0%)
  487. Title : Latin America Spanish
  488. Language : Spanish
  489. Default : No
  490. Forced : No

  491. Text #35
  492. ID : 37
  493. Format : UTF-8
  494. Codec ID : S_TEXT/UTF8
  495. Codec ID/Info : UTF-8 Plain Text
  496. Duration : 24 min 36 s
  497. Bit rate : 120 b/s
  498. Count of elements : 553
  499. Stream size : 21.8 KiB (0%)
  500. Title : European Spanish
  501. Language : Spanish
  502. Default : No
  503. Forced : No

  504. Text #36
  505. ID : 38
  506. Format : UTF-8
  507. Codec ID : S_TEXT/UTF8
  508. Codec ID/Info : UTF-8 Plain Text
  509. Duration : 24 min 28 s
  510. Bit rate : 104 b/s
  511. Count of elements : 581
  512. Stream size : 18.8 KiB (0%)
  513. Title : Swedish
  514. Language : Swedish
  515. Default : No
  516. Forced : No

  517. Text #37
  518. ID : 39
  519. Format : UTF-8
  520. Codec ID : S_TEXT/UTF8
  521. Codec ID/Info : UTF-8 Plain Text
  522. Duration : 24 min 32 s
  523. Bit rate : 362 b/s
  524. Count of elements : 584
  525. Stream size : 65.1 KiB (0%)
  526. Title : Tamil
  527. Language : Tamil
  528. Default : No
  529. Forced : No

  530. Text #38
  531. ID : 40
  532. Format : UTF-8
  533. Codec ID : S_TEXT/UTF8
  534. Codec ID/Info : UTF-8 Plain Text
  535. Duration : 24 min 32 s
  536. Bit rate : 352 b/s
  537. Count of elements : 584
  538. Stream size : 63.3 KiB (0%)
  539. Title : Telugu
  540. Language : Telugu
  541. Default : No
  542. Forced : No

  543. Text #39
  544. ID : 41
  545. Format : UTF-8
  546. Codec ID : S_TEXT/UTF8
  547. Codec ID/Info : UTF-8 Plain Text
  548. Duration : 24 min 32 s
  549. Bit rate : 284 b/s
  550. Count of elements : 585
  551. Stream size : 51.2 KiB (0%)
  552. Title : Thai
  553. Language : Thai
  554. Default : No
  555. Forced : No

  556. Text #40
  557. ID : 42
  558. Format : UTF-8
  559. Codec ID : S_TEXT/UTF8
  560. Codec ID/Info : UTF-8 Plain Text
  561. Duration : 24 min 32 s
  562. Bit rate : 160 b/s
  563. Count of elements : 585
  564. Stream size : 28.9 KiB (0%)
  565. Title : Ukrainian
  566. Language : Ukrainian
  567. Default : No
  568. Forced : No

  569. Text #41
  570. ID : 43
  571. Format : UTF-8
  572. Codec ID : S_TEXT/UTF8
  573. Codec ID/Info : UTF-8 Plain Text
  574. Duration : 24 min 32 s
  575. Bit rate : 152 b/s
  576. Count of elements : 582
  577. Stream size : 27.5 KiB (0%)
  578. Title : Vietnamese
  579. Language : Vietnamese
  580. Default : No
  581. Forced : No
复制代码

中央公园4k Central.Park.S01E01.2160p.WEB.H265电视剧下载

中央公园4k Central.Park.S01E01.2160p.WEB.H265【2.81 GB】
中央公园4k Central.Park.S01E01.2160p.WEB.H265-GHOSTS[rartv].torrent
(28.62 KB)
回复

使用道具 举报

发烧友评论1

倒序浏览
您需要登录后才可以回帖 登录 | 立即注册

本版积分规则


0关注

74粉丝

197帖子

热门主题
社区广告

关注微信公众号第一时间推送精彩

官方微信

手机访问

Hao4K影音

专注4k家庭影音,提供家庭影音社区,家庭影音器材库,影音问答平台,影音商城,服务千万家庭影音用户。

本站内容部分由用户自主分享和转载自互联网,转载目的在于传递更多信息,并不代表本网赞同其观点和对其真实性负责。

如有侵权、违反国家法律政策行为,请联系我们,我们会第一时间及时清除和处理!

举报反馈邮箱:admin@hao4k.cn

Copyright  2019-2020  Hao4K影音粤公网安备 44030302001429号     ( 粤ICP备18155646号-1 )|网站地图