专注4K家庭影音, 服务千万家庭影音发烧友!

[美剧] 拉米 第二季4k Ramy.S02.2160p.HULU.WEBRip.DDP5.1.x265电视剧

大红色 发表于 2020-5-29 20:45:30 | 显示全部楼层
电视剧频道
电视剧封面:
电视剧名: 拉米 第二季4k
年  代: 2020  
国  家: 美国
类  别: 喜剧 
语  言: 英语
字  幕: 英文原版
上映日期: 2020-05-29
文件格式: mkv    
视频效果: 4K(3840x2160)    
资源大小: 32.73 GB
片  长: 30 分钟
导  演: 拉米·尤素夫
剧情简介:  马赫沙拉·阿里将回归小荧幕,客串加盟拉米·尤素夫自编自导自演的Hulu剧集《拉米》第二季。本剧讲述一个名叫拉米的埃及裔美国千禧一代(尤素夫饰)的故事。据Hulu报道,阿里是这部剧的超级粉丝。第二季将于2020年首播。
拉米在美国/拉米 第二季4k Ramy.S02.2160p.HULU.WEBRip.DDP5.1.x265电视剧信息
  1. Video
  2. ID : 3
  3. Format : HEVC
  4. Format/Info : High Efficiency Video Coding
  5. Format profile : Main 10@L5.1@Main
  6. Codec ID : V_MPEGH/ISO/HEVC
  7. Duration : 43 min 23 s
  8. Bit rate : 15.9 Mb/s
  9. Width : 3 840 pixels
  10. Height : 2 160 pixels
  11. Display aspect ratio : 16:9
  12. Frame rate mode : Constant
  13. Frame rate : 23.976 (24000/1001) FPS
  14. Color space : YUV
  15. Chroma subsampling : 4:2:0
  16. Bit depth : 10 bits
  17. Bits/(Pixel*Frame) : 0.080
  18. Stream size : 4.81 GiB (98%)
  19. Default : Yes
  20. Forced : No

  21. Audio
  22. ID : 4
  23. Format : E-AC-3
  24. Format/Info : Enhanced AC-3
  25. Commercial name : Dolby Digital Plus
  26. Codec ID : A_EAC3
  27. Duration : 43 min 23 s
  28. Bit rate mode : Constant
  29. Bit rate : 256 kb/s
  30. Channel(s) : 6 channels
  31. Channel layout : L R C LFE Ls Rs
  32. Sampling rate : 48.0 kHz
  33. Frame rate : 31.250 FPS (1536 SPF)
  34. Compression mode : Lossy
  35. Stream size : 79.5 MiB (2%)
  36. Service kind : Complete Main
  37. Default : Yes
  38. Forced : No

  39. Text #1
  40. ID : 1
  41. Format : UTF-8
  42. Codec ID : S_TEXT/UTF8
  43. Codec ID/Info : UTF-8 Plain Text
  44. Duration : 42 min 37 s
  45. Bit rate : 86 b/s
  46. Count of elements : 802
  47. Stream size : 26.9 KiB (0%)
  48. Language : English
  49. Default : No
  50. Forced : No

  51. Text #2
  52. ID : 2
  53. Format : UTF-8
  54. Codec ID : S_TEXT/UTF8
  55. Codec ID/Info : UTF-8 Plain Text
  56. Duration : 42 min 43 s
  57. Bit rate : 85 b/s
  58. Count of elements : 844
  59. Stream size : 26.7 KiB (0%)
  60. Language : Spanish
  61. Default : No
  62. Forced : No
复制代码

拉米在美国/拉米 第二季4k Ramy.S02.2160p.HULU.WEBRip.DDP5.1.x265电视剧下载
拉米 第二季4k Ramy.S02.2160p.HULU.WEBRip.DDP5.1.x265【32.73 GB】
拉米 第二季4k Ramy.S02.2160p.HULU.WEBRip.DDP5.1.x265-OATH[rartv].torrent
(82.92 KB)
回复

使用道具 举报

发烧友评论3

倒序浏览
chevalierjay 发表于 2020-6-9 09:45:00 Hao4K手机版 | 显示全部楼层
大红色 发表于 2020-6-8 23:26
李尸朝鲜你可以先去看看别的版本,4k目前没有

那我还是耐心等待吧
回复 支持 反对

使用道具 举报

大红色 发表于 2020-6-8 23:26:37 | 显示全部楼层
chevalierjay 发表于 2020-6-1 09:32
hulu的拉米和Netflix的李尸朝鲜其实都是旨在藉由猎奇外衣探索人性本源的,但是拉米却有资源,而李尸朝鲜的 ...

李尸朝鲜你可以先去看看别的版本,4k目前没有
回复 支持 反对

使用道具 举报

 楼主| chevalierjay 发表于 2020-6-1 09:32:56 Hao4K手机版 | 显示全部楼层
hulu的拉米和Netflix的李尸朝鲜其实都是旨在藉由猎奇外衣探索人性本源的,但是拉米却有资源,而李尸朝鲜的第二季一直没有,你们都不好奇吗?最后,感谢楼主上传,世界需要多一点了解hulu。
回复 支持 反对

使用道具 举报

您需要登录后才可以回帖 登录 | 立即注册

本版积分规则

在线客服

在线客服

服务时间 9:00—18:00

返回顶部

关注微信公众号第一时间推送精彩

官方微信

手机访问

Hao4K影音

专注4k家庭影音,提供家庭影音社区,家庭影音器材库,影音问答平台,影音商城,服务千万家庭影音用户。

本站内容部分由用户自主分享和转载自互联网,转载目的在于传递更多信息,并不代表本网赞同其观点和对其真实性负责。

如有侵权、违反国家法律政策行为,请联系我们,我们会第一时间及时清除和处理!

举报反馈邮箱:admin@hao4k.cn

Copyright  2019-2020  Hao4K影音粤公网安备 44030302001429号    ( 粤ICP备18155646号-1 )