专注4K家庭影音, 服务千万家庭影音发烧友!

[美剧] 与鸟共舞4k Dancing.with.the.Birds.2019.2160p.NF.WEBRip.DDP5.1.Atmos.x265电视纪录片下载

大红色 发表于 2020-6-4 11:20:56 | 显示全部楼层
电视剧频道
电视剧封面:
电视剧名: 与鸟共舞4k
年  代: 2019  
国  家: 美国
类  别: 纪录片 
语  言: 英语
字  幕: 英文原版
上映日期: 2019-10-23
文件格式: mkv    
视频效果: 4K(3840x2160)    
资源大小: 11.16 GB
片  长: 51 分钟
导  演: 斯蒂芬·弗雷
剧情简介: 和《与雀共舞》一起深入热带雨林,近距离接触罕见的极乐鸟,看他们以惊人的方式寻找配偶。这部迷人而有趣的纪录片由《我们的星球》背后的团队打造,并由艾美奖得主斯蒂芬·弗雷担任解说。其对准大自然最奇妙的造物,为我们呈现出造化的妙曼迷人。
与鸟共舞(台)/与鸟共舞4k Dancing.with.the.Birds.2019.2160p.NF.WEBRip.DDP5.1.Atmos.x265电视纪录片信息
  1. Video
  2. ID : 31
  3. Format : HEVC
  4. Format/Info : High Efficiency Video Coding
  5. Format profile : Main 10@L5.1@High
  6. Codec ID : V_MPEGH/ISO/HEVC
  7. Duration : 51 min 35 s
  8. Bit rate : 30.2 Mb/s
  9. Width : 3 840 pixels
  10. Height : 2 160 pixels
  11. Display aspect ratio : 16:9
  12. Frame rate mode : Constant
  13. Frame rate : 23.976 (24000/1001) FPS
  14. Color space : YUV
  15. Chroma subsampling : 4:2:0
  16. Bit depth : 10 bits
  17. Bits/(Pixel*Frame) : 0.152
  18. Stream size : 10.9 GiB (98%)
  19. Writing library : x265 3.0_Au+4-dcbec33bfb0f:[Windows][GCC 8.2.1][64 bit] 10bit
  20. Encoding settings : cpuid=1111039 / frame-threads=4 / numa-pools=16 / wpp / pmode / no-pme / no-psnr / no-ssim / log-level=2 / input-csp=1 / input-res=3840x2160 / interlace=0 / total-frames=74217 / level-idc=51 / high-tier=1 / uhd-bd=0 / ref=5 / no-allow-non-conformance / repeat-headers / annexb / aud / no-hrd / info / hash=0 / no-temporal-layers / no-open-gop / min-keyint=23 / keyint=250 / gop-lookahead=0 / bframes=12 / b-adapt=2 / b-pyramid / bframe-bias=0 / rc-lookahead=40 / lookahead-slices=0 / scenecut=40 / radl=0 / no-splice / no-intra-refresh / ctu=64 / min-cu-size=8 / no-rect / no-amp / max-tu-size=32 / tu-inter-depth=3 / tu-intra-depth=3 / limit-tu=0 / rdoq-level=2 / dynamic-rd=0.00 / no-ssim-rd / signhide / no-tskip / nr-intra=0 / nr-inter=0 / no-constrained-intra / strong-intra-smoothing / max-merge=5 / limit-refs=0 / no-limit-modes / me=3 / subme=5 / merange=57 / temporal-mvp / weightp / weightb / no-analyze-src-pics / deblock=-3:-3 / no-sao / no-sao-non-deblock / rd=4 / no-early-skip / no-rskip / no-fast-intra / no-tskip-fast / no-cu-lossless / b-intra / no-splitrd-skip / rdpenalty=0 / psy-rd=2.00 / psy-rdoq=0.00 / no-rd-refine / no-lossless / cbqpoffs=0 / crqpoffs=0 / rc=crf / crf=18.7 / qcomp=0.60 / qpstep=4 / stats-write=0 / stats-read=0 / vbv-maxrate=160000 / vbv-bufsize=160000 / vbv-init=0.9 / crf-max=0.0 / crf-min=0.0 / ipratio=1.30 / pbratio=1.20 / aq-mode=3 / aq-strength=0.90 / no-cutree / zone-count=0 / no-strict-cbr / qg-size=32 / no-rc-grain / qpmax=69 / qpmin=0 / no-const-vbv / sar=1 / overscan=0 / videoformat=5 / range=0 / colorprim=1 / transfer=1 / colormatrix=1 / chromaloc=0 / display-window=0 / max-cll=0,0 / min-luma=0 / max-luma=1023 / log2-max-poc-lsb=8 / vui-timing-info / vui-hrd-info / slices=1 / no-opt-qp-pps / no-opt-ref-list-length-pps / no-multi-pass-opt-rps / scenecut-bias=0.05 / no-opt-cu-delta-qp / no-aq-motion / no-hdr / no-hdr-opt / no-dhdr10-opt / no-idr-recovery-sei / analysis-reuse-level=5 / scale-factor=0 / refine-intra=0 / refine-inter=0 / refine-mv=0 / refine-ctu-distortion=0 / no-limit-sao / ctu-info=0 / no-lowpass-dct / refine-analysis-type=0 / copy-pic=1 / max-ausize-factor=1.0 / no-dynamic-refine / no-single-sei / no-hevc-aq / qp-adaptation-range=1.00
  21. Default : Yes
  22. Forced : No
  23. Color range : Limited
  24. Color primaries : BT.709
  25. Transfer characteristics : BT.709
  26. Matrix coefficients : BT.709

  27. Audio
  28. ID : 1
  29. Format : E-AC-3 JOC
  30. Format/Info : Enhanced AC-3 with Joint Object Coding
  31. Commercial name : Dolby Digital Plus with Dolby Atmos
  32. Codec ID : A_EAC3
  33. Duration : 51 min 35 s
  34. Bit rate mode : Constant
  35. Bit rate : 768 kb/s
  36. Channel(s) : 6 channels
  37. Channel layout : L R C LFE Ls Rs
  38. Sampling rate : 48.0 kHz
  39. Frame rate : 31.250 FPS (1536 SPF)
  40. Compression mode : Lossy
  41. Stream size : 283 MiB (2%)
  42. Language : English
  43. Service kind : Complete Main
  44. Default : Yes
  45. Forced : No
  46. Complexity index : 16
  47. Number of dynamic objects : 15
  48. Bed channel count : 1 channel
  49. Bed channel configuration : LFE

  50. Text #1
  51. ID : 2
  52. Format : UTF-8
  53. Codec ID : S_TEXT/UTF8
  54. Codec ID/Info : UTF-8 Plain Text
  55. Duration : 50 min 57 s
  56. Bit rate : 74 b/s
  57. Count of elements : 498
  58. Stream size : 27.9 KiB (0%)
  59. Title : Arabic
  60. Language : Arabic
  61. Default : No
  62. Forced : No

  63. Text #2
  64. ID : 3
  65. Format : UTF-8
  66. Codec ID : S_TEXT/UTF8
  67. Codec ID/Info : UTF-8 Plain Text
  68. Duration : 50 min 57 s
  69. Bit rate : 43 b/s
  70. Count of elements : 455
  71. Stream size : 16.3 KiB (0%)
  72. Title : Czech
  73. Language : Czech
  74. Default : No
  75. Forced : No

  76. Text #3
  77. ID : 4
  78. Format : UTF-8
  79. Codec ID : S_TEXT/UTF8
  80. Codec ID/Info : UTF-8 Plain Text
  81. Duration : 50 min 26 s
  82. Bit rate : 42 b/s
  83. Count of elements : 401
  84. Stream size : 15.8 KiB (0%)
  85. Title : Danish
  86. Language : Danish
  87. Default : No
  88. Forced : No

  89. Text #4
  90. ID : 5
  91. Format : UTF-8
  92. Codec ID : S_TEXT/UTF8
  93. Codec ID/Info : UTF-8 Plain Text
  94. Duration : 50 min 26 s
  95. Bit rate : 47 b/s
  96. Count of elements : 468
  97. Stream size : 17.5 KiB (0%)
  98. Title : German
  99. Language : German
  100. Default : No
  101. Forced : No

  102. Text #5
  103. ID : 6
  104. Format : UTF-8
  105. Codec ID : S_TEXT/UTF8
  106. Codec ID/Info : UTF-8 Plain Text
  107. Duration : 50 min 26 s
  108. Bit rate : 85 b/s
  109. Count of elements : 476
  110. Stream size : 31.6 KiB (0%)
  111. Title : Greek
  112. Language : Greek
  113. Default : No
  114. Forced : No

  115. Text #6
  116. ID : 7
  117. Format : UTF-8
  118. Codec ID : S_TEXT/UTF8
  119. Codec ID/Info : UTF-8 Plain Text
  120. Duration : 50 min 57 s
  121. Bit rate : 43 b/s
  122. Count of elements : 487
  123. Stream size : 16.4 KiB (0%)
  124. Title : Spanish
  125. Language : Spanish
  126. Default : No
  127. Forced : No

  128. Text #7
  129. ID : 8
  130. Format : UTF-8
  131. Codec ID : S_TEXT/UTF8
  132. Codec ID/Info : UTF-8 Plain Text
  133. Duration : 50 min 26 s
  134. Bit rate : 45 b/s
  135. Count of elements : 473
  136. Stream size : 16.9 KiB (0%)
  137. Title : Spanish
  138. Language : Spanish
  139. Default : No
  140. Forced : No

  141. Text #8
  142. ID : 9
  143. Format : UTF-8
  144. Codec ID : S_TEXT/UTF8
  145. Codec ID/Info : UTF-8 Plain Text
  146. Duration : 50 min 31 s
  147. Bit rate : 46 b/s
  148. Count of elements : 483
  149. Stream size : 17.2 KiB (0%)
  150. Title : Finnish
  151. Language : Finnish
  152. Default : No
  153. Forced : No

  154. Text #9
  155. ID : 10
  156. Format : UTF-8
  157. Codec ID : S_TEXT/UTF8
  158. Codec ID/Info : UTF-8 Plain Text
  159. Duration : 50 min 26 s
  160. Bit rate : 49 b/s
  161. Count of elements : 510
  162. Stream size : 18.3 KiB (0%)
  163. Title : French
  164. Language : French
  165. Default : No
  166. Forced : No

  167. Text #10
  168. ID : 11
  169. Format : UTF-8
  170. Codec ID : S_TEXT/UTF8
  171. Codec ID/Info : UTF-8 Plain Text
  172. Duration : 50 min 26 s
  173. Bit rate : 66 b/s
  174. Count of elements : 490
  175. Stream size : 24.6 KiB (0%)
  176. Title : Hebrew
  177. Language : Hebrew
  178. Default : No
  179. Forced : No

  180. Text #11
  181. ID : 12
  182. Format : UTF-8
  183. Codec ID : S_TEXT/UTF8
  184. Codec ID/Info : UTF-8 Plain Text
  185. Duration : 50 min 57 s
  186. Bit rate : 45 b/s
  187. Count of elements : 491
  188. Stream size : 17.1 KiB (0%)
  189. Title : Hungarian
  190. Language : Hungarian
  191. Default : No
  192. Forced : No

  193. Text #12
  194. ID : 13
  195. Format : UTF-8
  196. Codec ID : S_TEXT/UTF8
  197. Codec ID/Info : UTF-8 Plain Text
  198. Duration : 50 min 57 s
  199. Bit rate : 43 b/s
  200. Count of elements : 489
  201. Stream size : 16.1 KiB (0%)
  202. Title : Indonesian
  203. Language : Indonesian
  204. Default : No
  205. Forced : No

  206. Text #13
  207. ID : 14
  208. Format : UTF-8
  209. Codec ID : S_TEXT/UTF8
  210. Codec ID/Info : UTF-8 Plain Text
  211. Duration : 50 min 27 s
  212. Bit rate : 47 b/s
  213. Count of elements : 451
  214. Stream size : 17.5 KiB (0%)
  215. Title : Italian
  216. Language : Italian
  217. Default : No
  218. Forced : No

  219. Text #14
  220. ID : 15
  221. Format : UTF-8
  222. Codec ID : S_TEXT/UTF8
  223. Codec ID/Info : UTF-8 Plain Text
  224. Duration : 50 min 26 s
  225. Bit rate : 44 b/s
  226. Count of elements : 456
  227. Stream size : 16.4 KiB (0%)
  228. Title : Japanese
  229. Language : Japanese
  230. Default : No
  231. Forced : No

  232. Text #15
  233. ID : 16
  234. Format : UTF-8
  235. Codec ID : S_TEXT/UTF8
  236. Codec ID/Info : UTF-8 Plain Text
  237. Duration : 50 min 26 s
  238. Bit rate : 62 b/s
  239. Count of elements : 487
  240. Stream size : 23.2 KiB (0%)
  241. Title : Korean
  242. Language : Korean
  243. Default : No
  244. Forced : No

  245. Text #16
  246. ID : 17
  247. Format : UTF-8
  248. Codec ID : S_TEXT/UTF8
  249. Codec ID/Info : UTF-8 Plain Text
  250. Duration : 50 min 57 s
  251. Bit rate : 43 b/s
  252. Count of elements : 475
  253. Stream size : 16.1 KiB (0%)
  254. Title : Norwegian
  255. Language : Norwegian Bokmal
  256. Default : No
  257. Forced : No

  258. Text #17
  259. ID : 18
  260. Format : UTF-8
  261. Codec ID : S_TEXT/UTF8
  262. Codec ID/Info : UTF-8 Plain Text
  263. Duration : 50 min 57 s
  264. Bit rate : 44 b/s
  265. Count of elements : 412
  266. Stream size : 16.8 KiB (0%)
  267. Title : Dutch
  268. Language : Dutch
  269. Default : No
  270. Forced : No

  271. Text #18
  272. ID : 19
  273. Format : UTF-8
  274. Codec ID : S_TEXT/UTF8
  275. Codec ID/Info : UTF-8 Plain Text
  276. Duration : 50 min 57 s
  277. Bit rate : 42 b/s
  278. Count of elements : 490
  279. Stream size : 16.0 KiB (0%)
  280. Title : Polish
  281. Language : Polish
  282. Default : No
  283. Forced : No

  284. Text #19
  285. ID : 20
  286. Format : UTF-8
  287. Codec ID : S_TEXT/UTF8
  288. Codec ID/Info : UTF-8 Plain Text
  289. Duration : 50 min 57 s
  290. Bit rate : 45 b/s
  291. Count of elements : 483
  292. Stream size : 16.9 KiB (0%)
  293. Title : Brazilian
  294. Language : Portuguese
  295. Default : No
  296. Forced : No

  297. Text #20
  298. ID : 21
  299. Format : UTF-8
  300. Codec ID : S_TEXT/UTF8
  301. Codec ID/Info : UTF-8 Plain Text
  302. Duration : 50 min 57 s
  303. Bit rate : 45 b/s
  304. Count of elements : 491
  305. Stream size : 16.8 KiB (0%)
  306. Title : Portuguese
  307. Language : Portuguese
  308. Default : No
  309. Forced : No

  310. Text #21
  311. ID : 22
  312. Format : UTF-8
  313. Codec ID : S_TEXT/UTF8
  314. Codec ID/Info : UTF-8 Plain Text
  315. Duration : 50 min 26 s
  316. Bit rate : 50 b/s
  317. Count of elements : 477
  318. Stream size : 18.6 KiB (0%)
  319. Title : Romanian
  320. Language : Romanian
  321. Default : No
  322. Forced : No

  323. Text #22
  324. ID : 23
  325. Format : UTF-8
  326. Codec ID : S_TEXT/UTF8
  327. Codec ID/Info : UTF-8 Plain Text
  328. Duration : 50 min 26 s
  329. Bit rate : 74 b/s
  330. Count of elements : 495
  331. Stream size : 27.5 KiB (0%)
  332. Title : Russian
  333. Language : Russian
  334. Default : No
  335. Forced : No

  336. Text #23
  337. ID : 24
  338. Format : UTF-8
  339. Codec ID : S_TEXT/UTF8
  340. Codec ID/Info : UTF-8 Plain Text
  341. Duration : 50 min 57 s
  342. Bit rate : 43 b/s
  343. Count of elements : 420
  344. Stream size : 16.1 KiB (0%)
  345. Title : Swedish
  346. Language : Swedish
  347. Default : No
  348. Forced : No

  349. Text #24
  350. ID : 25
  351. Format : UTF-8
  352. Codec ID : S_TEXT/UTF8
  353. Codec ID/Info : UTF-8 Plain Text
  354. Duration : 50 min 26 s
  355. Bit rate : 119 b/s
  356. Count of elements : 498
  357. Stream size : 44.3 KiB (0%)
  358. Title : Thai
  359. Language : Thai
  360. Default : No
  361. Forced : No

  362. Text #25
  363. ID : 26
  364. Format : UTF-8
  365. Codec ID : S_TEXT/UTF8
  366. Codec ID/Info : UTF-8 Plain Text
  367. Duration : 50 min 57 s
  368. Bit rate : 47 b/s
  369. Count of elements : 481
  370. Stream size : 17.8 KiB (0%)
  371. Title : Turkish
  372. Language : Turkish
  373. Default : No
  374. Forced : No

  375. Text #26
  376. ID : 27
  377. Format : UTF-8
  378. Codec ID : S_TEXT/UTF8
  379. Codec ID/Info : UTF-8 Plain Text
  380. Duration : 50 min 26 s
  381. Bit rate : 61 b/s
  382. Count of elements : 489
  383. Stream size : 22.9 KiB (0%)
  384. Title : Vietnamese
  385. Language : Vietnamese
  386. Default : No
  387. Forced : No

  388. Text #27
  389. ID : 28
  390. Format : UTF-8
  391. Codec ID : S_TEXT/UTF8
  392. Codec ID/Info : UTF-8 Plain Text
  393. Duration : 50 min 26 s
  394. Bit rate : 44 b/s
  395. Count of elements : 498
  396. Stream size : 16.4 KiB (0%)
  397. Title : Simplified
  398. Language : Chinese
  399. Default : No
  400. Forced : No

  401. Text #28
  402. ID : 29
  403. Format : UTF-8
  404. Codec ID : S_TEXT/UTF8
  405. Codec ID/Info : UTF-8 Plain Text
  406. Duration : 50 min 26 s
  407. Bit rate : 40 b/s
  408. Count of elements : 498
  409. Stream size : 15.1 KiB (0%)
  410. Title : Traditional
  411. Language : Chinese
  412. Default : No
  413. Forced : No

  414. Text #29
  415. ID : 30
  416. Format : UTF-8
  417. Codec ID : S_TEXT/UTF8
  418. Codec ID/Info : UTF-8 Plain Text
  419. Duration : 50 min 30 s
  420. Bit rate : 54 b/s
  421. Count of elements : 704
  422. Stream size : 20.3 KiB (0%)
  423. Title : English
  424. Language : English
  425. Default : No
  426. Forced : No
复制代码

与鸟共舞(台)/与鸟共舞4k Dancing.with.the.Birds.2019.2160p.NF.WEBRip.DDP5.1.Atmos.x265电视纪录片下载
与鸟共舞4k Dancing.with.the.Birds.2019.2160p.NF.WEBRip.DDP5.1.Atmos.x265【11.16 GB】
[Hao4k]与鸟共舞4k Dancing.with.the.Birds.2019.2160p.NF.WEBRip.DDP5.1.Atmos.x265-.torrent
(56.35 KB, 售价: 2 K币)
回复

使用道具 举报

发烧友评论6

倒序浏览
guoming 发表于 6 天前 | 显示全部楼层
喜欢的纪录片,谢谢楼主分享!
回复 支持 反对

使用道具 举报

lfdhr01 发表于 2020-9-17 02:20:45 | 显示全部楼层
聚焦鸟类的求偶,比如热带雨林中多彩的天堂鸟们怎么追求伴侣,颜值and创意的比拼,一个比一个美
回复 支持 反对

使用道具 举报

linglin 发表于 2020-7-27 18:33:15 | 显示全部楼层
非常感谢分享!
回复 支持 反对

使用道具 举报

yishengchennuo 发表于 2020-6-15 15:02:45 | 显示全部楼层
鸟语花香。喜欢的纪录片又来了!谢谢HAO4K
回复 支持 反对

使用道具 举报

大红色 发表于 2020-6-8 23:25:40 | 显示全部楼层
chevalierjay 发表于 2020-6-4 16:01
其实老看李尸朝鲜这样的也容易腻歪,但是第二季无源好难受啊。算了,学会欣赏纪录片吧,这样又能开拓出新的 ...

你说的李尸朝鲜如果有资源会第一时间发布
回复 支持 反对

使用道具 举报

 楼主| chevalierjay 发表于 2020-6-4 16:01:34 Hao4K手机版 | 显示全部楼层
其实老看李尸朝鲜这样的也容易腻歪,但是第二季无源好难受啊。算了,学会欣赏纪录片吧,这样又能开拓出新的观赏领域,嘿嘿。
回复 支持 反对

使用道具 举报

您需要登录后才可以回帖 登录 | 立即注册

本版积分规则

在线客服

在线客服

服务时间 9:00—18:00

返回顶部

关注微信公众号第一时间推送精彩

官方微信

手机访问

Hao4K影音

专注4k家庭影音,提供家庭影音社区,家庭影音器材库,影音问答平台,影音商城,服务千万家庭影音用户。

本站内容部分由用户自主分享和转载自互联网,转载目的在于传递更多信息,并不代表本网赞同其观点和对其真实性负责。

如有侵权、违反国家法律政策行为,请联系我们,我们会第一时间及时清除和处理!

举报反馈邮箱:admin@hao4k.cn

Copyright  2019-2020  Hao4K影音粤公网安备 44030302001429号    ( 粤ICP备18155646号-1 )|网站地图