专注4K家庭影音, 服务千万家庭影音发烧友!

[美剧] 亲爱的4k Dear.S01.2160p.ATVP.WEB-DL.DD5.1.Atmos.x265美剧纪录片下载

大红色 发表于 2020-6-5 17:52:00 | 显示全部楼层
电视剧频道
电视剧封面:
电视剧名: 亲爱的4k
年  代: 2020  
国  家: 美国
类  别: 纪录片 
语  言: 英语
字  幕: 英文原版
上映日期: 2020-06-05
文件格式: mkv    
视频效果: 4K(3840x2160)    
资源大小: 51.42 GB
片  长: 暂无 分钟
导  演: Peter McCoubrey / Jennifer Harrington / 阿比盖尔·福勒 / Alex Simmons / Joris Debeij / Randy Wilkins
剧情简介: 该剧集利用粉丝写给名人的信件,回顾这些极具影响力的人的生活。
  出镜的名人包括奥普拉·温弗瑞、格洛丽亚·斯泰纳姆、珍·古道尔、斯派克·李、林-曼努尔·米兰达、斯蒂夫·旺达、亚历山德拉·莱斯曼、雅拉·沙希迪等。
亲爱的4k Dear.S01.2160p.ATVP.WEB-DL.x265.10bit.HDR.DD5.1.Atmos美剧纪录片信息
  1. Video
  2. ID : 1
  3. Format : HEVC
  4. Format/Info : High Efficiency Video Coding
  5. Format profile : Main 10@L5@High
  6. HDR format : SMPTE ST 2086, HDR10 compatible
  7. Codec ID : V_MPEGH/ISO/HEVC
  8. Duration : 38 min 38 s
  9. Bit rate : 24.3 Mb/s
  10. Width : 3 840 pixels
  11. Height : 2 160 pixels
  12. Display aspect ratio : 16:9
  13. Frame rate mode : Constant
  14. Frame rate : 23.976 (24000/1001) FPS
  15. Color space : YUV
  16. Chroma subsampling : 4:2:0 (Type 2)
  17. Bit depth : 10 bits
  18. Bits/(Pixel*Frame) : 0.122
  19. Stream size : 6.57 GiB (97%)
  20. Language : English
  21. Default : Yes
  22. Forced : No
  23. Color range : Limited
  24. Color primaries : BT.2020
  25. Transfer characteristics : PQ
  26. Matrix coefficients : BT.2020 non-constant
  27. Mastering display color primaries : Display P3
  28. Mastering display luminance : min: 0.0050 cd/m2, max: 1000 cd/m2
  29. Maximum Content Light Level : 1980 cd/m2
  30. Maximum Frame-Average Light Level : 991 cd/m2

  31. Audio
  32. ID : 2
  33. Format : E-AC-3 JOC
  34. Format/Info : Enhanced AC-3 with Joint Object Coding
  35. Commercial name : Dolby Digital Plus with Dolby Atmos
  36. Codec ID : A_EAC3
  37. Duration : 38 min 39 s
  38. Bit rate mode : Constant
  39. Bit rate : 768 kb/s
  40. Channel(s) : 6 channels
  41. Channel layout : L R C LFE Ls Rs
  42. Sampling rate : 48.0 kHz
  43. Frame rate : 31.250 FPS (1536 SPF)
  44. Compression mode : Lossy
  45. Stream size : 212 MiB (3%)
  46. Language : English
  47. Service kind : Complete Main
  48. Default : Yes
  49. Forced : No
  50. Complexity index : 16
  51. Number of dynamic objects : 15
  52. Bed channel count : 1 channel
  53. Bed channel configuration : LFE

  54. Text #1
  55. ID : 3
  56. Format : UTF-8
  57. Codec ID : S_TEXT/UTF8
  58. Codec ID/Info : UTF-8 Plain Text
  59. Duration : 38 min 24 s
  60. Bit rate : 136 b/s
  61. Count of elements : 646
  62. Stream size : 38.5 KiB (0%)
  63. Title : العربية
  64. Language : Arabic
  65. Default : No
  66. Forced : No

  67. Text #2
  68. ID : 4
  69. Format : UTF-8
  70. Codec ID : S_TEXT/UTF8
  71. Codec ID/Info : UTF-8 Plain Text
  72. Duration : 38 min 24 s
  73. Bit rate : 150 b/s
  74. Count of elements : 592
  75. Stream size : 42.3 KiB (0%)
  76. Title : български
  77. Language : Bulgarian
  78. Default : No
  79. Forced : No

  80. Text #3
  81. ID : 5
  82. Format : UTF-8
  83. Codec ID : S_TEXT/UTF8
  84. Codec ID/Info : UTF-8 Plain Text
  85. Duration : 38 min 24 s
  86. Bit rate : 94 b/s
  87. Count of elements : 616
  88. Stream size : 26.6 KiB (0%)
  89. Title : Čeština
  90. Language : Czech
  91. Default : No
  92. Forced : No

  93. Text #4
  94. ID : 6
  95. Format : UTF-8
  96. Codec ID : S_TEXT/UTF8
  97. Codec ID/Info : UTF-8 Plain Text
  98. Duration : 38 min 24 s
  99. Bit rate : 96 b/s
  100. Count of elements : 607
  101. Stream size : 27.0 KiB (0%)
  102. Title : dansk
  103. Language : Danish
  104. Default : No
  105. Forced : No

  106. Text #5
  107. ID : 7
  108. Format : UTF-8
  109. Codec ID : S_TEXT/UTF8
  110. Codec ID/Info : UTF-8 Plain Text
  111. Duration : 37 min 45 s
  112. Bit rate : 101 b/s
  113. Count of elements : 628
  114. Stream size : 28.1 KiB (0%)
  115. Title : Deutsch
  116. Language : German
  117. Default : No
  118. Forced : No

  119. Text #6
  120. ID : 8
  121. Format : UTF-8
  122. Codec ID : S_TEXT/UTF8
  123. Codec ID/Info : UTF-8 Plain Text
  124. Duration : 38 min 24 s
  125. Bit rate : 167 b/s
  126. Count of elements : 600
  127. Stream size : 47.0 KiB (0%)
  128. Title : Ελληνικά
  129. Language : Greek
  130. Default : No
  131. Forced : No

  132. Text #7
  133. ID : 9
  134. Format : UTF-8
  135. Codec ID : S_TEXT/UTF8
  136. Codec ID/Info : UTF-8 Plain Text
  137. Duration : 24 min 38 s
  138. Bit rate : 0 b/s
  139. Count of elements : 2
  140. Stream size : 55.0 Bytes (0%)
  141. Title : English (forced)
  142. Language : English
  143. Default : No
  144. Forced : Yes

  145. Text #8
  146. ID : 10
  147. Format : UTF-8
  148. Codec ID : S_TEXT/UTF8
  149. Codec ID/Info : UTF-8 Plain Text
  150. Duration : 37 min 37 s
  151. Bit rate : 102 b/s
  152. Count of elements : 633
  153. Stream size : 28.2 KiB (0%)
  154. Title : English (SDH)
  155. Language : English
  156. Default : No
  157. Forced : No

  158. Text #9
  159. ID : 11
  160. Format : UTF-8
  161. Codec ID : S_TEXT/UTF8
  162. Codec ID/Info : UTF-8 Plain Text
  163. Duration : 37 min 34 s
  164. Bit rate : 98 b/s
  165. Count of elements : 610
  166. Stream size : 27.1 KiB (0%)
  167. Title : English
  168. Language : English
  169. Default : No
  170. Forced : No

  171. Text #10
  172. ID : 12
  173. Format : UTF-8
  174. Codec ID : S_TEXT/UTF8
  175. Codec ID/Info : UTF-8 Plain Text
  176. Duration : 38 min 26 s
  177. Bit rate : 94 b/s
  178. Count of elements : 604
  179. Stream size : 26.7 KiB (0%)
  180. Title : Español (España)
  181. Language : Spanish
  182. Default : No
  183. Forced : No

  184. Text #11
  185. ID : 13
  186. Format : UTF-8
  187. Codec ID : S_TEXT/UTF8
  188. Codec ID/Info : UTF-8 Plain Text
  189. Duration : 38 min 24 s
  190. Bit rate : 100 b/s
  191. Count of elements : 649
  192. Stream size : 28.1 KiB (0%)
  193. Title : Español (Latinoamérica)
  194. Language : Spanish
  195. Default : No
  196. Forced : No

  197. Text #12
  198. ID : 14
  199. Format : UTF-8
  200. Codec ID : S_TEXT/UTF8
  201. Codec ID/Info : UTF-8 Plain Text
  202. Duration : 38 min 24 s
  203. Bit rate : 87 b/s
  204. Count of elements : 609
  205. Stream size : 24.7 KiB (0%)
  206. Title : eesti
  207. Language : Estonian
  208. Default : No
  209. Forced : No

  210. Text #13
  211. ID : 15
  212. Format : UTF-8
  213. Codec ID : S_TEXT/UTF8
  214. Codec ID/Info : UTF-8 Plain Text
  215. Duration : 38 min 24 s
  216. Bit rate : 81 b/s
  217. Count of elements : 633
  218. Stream size : 23.0 KiB (0%)
  219. Title : Suomi
  220. Language : Finnish
  221. Default : No
  222. Forced : No

  223. Text #14
  224. ID : 16
  225. Format : UTF-8
  226. Codec ID : S_TEXT/UTF8
  227. Codec ID/Info : UTF-8 Plain Text
  228. Duration : 37 min 58 s
  229. Bit rate : 100 b/s
  230. Count of elements : 669
  231. Stream size : 27.9 KiB (0%)
  232. Title : Français (France)
  233. Language : French
  234. Default : No
  235. Forced : No

  236. Text #15
  237. ID : 17
  238. Format : UTF-8
  239. Codec ID : S_TEXT/UTF8
  240. Codec ID/Info : UTF-8 Plain Text
  241. Duration : 37 min 58 s
  242. Bit rate : 100 b/s
  243. Count of elements : 669
  244. Stream size : 27.9 KiB (0%)
  245. Title : Français (Canada)
  246. Language : French
  247. Default : No
  248. Forced : No

  249. Text #16
  250. ID : 18
  251. Format : UTF-8
  252. Codec ID : S_TEXT/UTF8
  253. Codec ID/Info : UTF-8 Plain Text
  254. Duration : 38 min 24 s
  255. Bit rate : 133 b/s
  256. Count of elements : 654
  257. Stream size : 37.6 KiB (0%)
  258. Title : עברית
  259. Language : Hebrew
  260. Default : No
  261. Forced : No

  262. Text #17
  263. ID : 19
  264. Format : UTF-8
  265. Codec ID : S_TEXT/UTF8
  266. Codec ID/Info : UTF-8 Plain Text
  267. Duration : 38 min 24 s
  268. Bit rate : 243 b/s
  269. Count of elements : 648
  270. Stream size : 68.4 KiB (0%)
  271. Title : हिन्दी
  272. Language : Hindi
  273. Default : No
  274. Forced : No

  275. Text #18
  276. ID : 20
  277. Format : UTF-8
  278. Codec ID : S_TEXT/UTF8
  279. Codec ID/Info : UTF-8 Plain Text
  280. Duration : 38 min 24 s
  281. Bit rate : 94 b/s
  282. Count of elements : 643
  283. Stream size : 26.5 KiB (0%)
  284. Title : magyar
  285. Language : Hungarian
  286. Default : No
  287. Forced : No

  288. Text #19
  289. ID : 21
  290. Format : UTF-8
  291. Codec ID : S_TEXT/UTF8
  292. Codec ID/Info : UTF-8 Plain Text
  293. Duration : 38 min 24 s
  294. Bit rate : 102 b/s
  295. Count of elements : 637
  296. Stream size : 28.9 KiB (0%)
  297. Title : Bahasa Indonesia
  298. Language : Indonesian
  299. Default : No
  300. Forced : No

  301. Text #20
  302. ID : 22
  303. Format : UTF-8
  304. Codec ID : S_TEXT/UTF8
  305. Codec ID/Info : UTF-8 Plain Text
  306. Duration : 38 min 26 s
  307. Bit rate : 100 b/s
  308. Count of elements : 609
  309. Stream size : 28.3 KiB (0%)
  310. Title : Italiano
  311. Language : Italian
  312. Default : No
  313. Forced : No

  314. Text #21
  315. ID : 23
  316. Format : UTF-8
  317. Codec ID : S_TEXT/UTF8
  318. Codec ID/Info : UTF-8 Plain Text
  319. Duration : 38 min 24 s
  320. Bit rate : 87 b/s
  321. Count of elements : 580
  322. Stream size : 24.7 KiB (0%)
  323. Title : 日本語
  324. Language : Japanese
  325. Default : No
  326. Forced : No

  327. Text #22
  328. ID : 24
  329. Format : UTF-8
  330. Codec ID : S_TEXT/UTF8
  331. Codec ID/Info : UTF-8 Plain Text
  332. Duration : 38 min 24 s
  333. Bit rate : 99 b/s
  334. Count of elements : 644
  335. Stream size : 27.9 KiB (0%)
  336. Title : lietuvių
  337. Language : Lithuanian
  338. Default : No
  339. Forced : No

  340. Text #23
  341. ID : 25
  342. Format : UTF-8
  343. Codec ID : S_TEXT/UTF8
  344. Codec ID/Info : UTF-8 Plain Text
  345. Duration : 38 min 24 s
  346. Bit rate : 97 b/s
  347. Count of elements : 634
  348. Stream size : 27.5 KiB (0%)
  349. Title : latviešu
  350. Language : Latvian
  351. Default : No
  352. Forced : No

  353. Text #24
  354. ID : 26
  355. Format : UTF-8
  356. Codec ID : S_TEXT/UTF8
  357. Codec ID/Info : UTF-8 Plain Text
  358. Duration : 38 min 24 s
  359. Bit rate : 104 b/s
  360. Count of elements : 640
  361. Stream size : 29.3 KiB (0%)
  362. Title : Bahasa Melayu
  363. Language : Malay
  364. Default : No
  365. Forced : No

  366. Text #25
  367. ID : 27
  368. Format : UTF-8
  369. Codec ID : S_TEXT/UTF8
  370. Codec ID/Info : UTF-8 Plain Text
  371. Duration : 38 min 24 s
  372. Bit rate : 85 b/s
  373. Count of elements : 542
  374. Stream size : 24.2 KiB (0%)
  375. Title : Nederlands
  376. Language : Dutch
  377. Default : No
  378. Forced : No

  379. Text #26
  380. ID : 28
  381. Format : UTF-8
  382. Codec ID : S_TEXT/UTF8
  383. Codec ID/Info : UTF-8 Plain Text
  384. Duration : 38 min 24 s
  385. Bit rate : 93 b/s
  386. Count of elements : 629
  387. Stream size : 26.2 KiB (0%)
  388. Title : norsk
  389. Language : Norwegian
  390. Default : No
  391. Forced : No

  392. Text #27
  393. ID : 29
  394. Format : UTF-8
  395. Codec ID : S_TEXT/UTF8
  396. Codec ID/Info : UTF-8 Plain Text
  397. Duration : 38 min 24 s
  398. Bit rate : 96 b/s
  399. Count of elements : 618
  400. Stream size : 27.0 KiB (0%)
  401. Title : polski
  402. Language : Polish
  403. Default : No
  404. Forced : No

  405. Text #28
  406. ID : 30
  407. Format : UTF-8
  408. Codec ID : S_TEXT/UTF8
  409. Codec ID/Info : UTF-8 Plain Text
  410. Duration : 38 min 24 s
  411. Bit rate : 92 b/s
  412. Count of elements : 623
  413. Stream size : 26.0 KiB (0%)
  414. Title : Português (Brasil)
  415. Language : Portuguese
  416. Default : No
  417. Forced : No

  418. Text #29
  419. ID : 31
  420. Format : UTF-8
  421. Codec ID : S_TEXT/UTF8
  422. Codec ID/Info : UTF-8 Plain Text
  423. Duration : 38 min 24 s
  424. Bit rate : 94 b/s
  425. Count of elements : 638
  426. Stream size : 26.6 KiB (0%)
  427. Title : Português
  428. Language : Portuguese
  429. Default : No
  430. Forced : No

  431. Text #30
  432. ID : 32
  433. Format : UTF-8
  434. Codec ID : S_TEXT/UTF8
  435. Codec ID/Info : UTF-8 Plain Text
  436. Duration : 38 min 24 s
  437. Bit rate : 155 b/s
  438. Count of elements : 647
  439. Stream size : 43.8 KiB (0%)
  440. Title : Русский
  441. Language : Russian
  442. Default : No
  443. Forced : No

  444. Text #31
  445. ID : 33
  446. Format : UTF-8
  447. Codec ID : S_TEXT/UTF8
  448. Codec ID/Info : UTF-8 Plain Text
  449. Duration : 38 min 24 s
  450. Bit rate : 89 b/s
  451. Count of elements : 620
  452. Stream size : 25.2 KiB (0%)
  453. Title : Slovenčina
  454. Language : Slovak
  455. Default : No
  456. Forced : No

  457. Text #32
  458. ID : 34
  459. Format : UTF-8
  460. Codec ID : S_TEXT/UTF8
  461. Codec ID/Info : UTF-8 Plain Text
  462. Duration : 38 min 24 s
  463. Bit rate : 81 b/s
  464. Count of elements : 609
  465. Stream size : 23.0 KiB (0%)
  466. Title : slovenščina
  467. Language : Slovenian
  468. Default : No
  469. Forced : No

  470. Text #33
  471. ID : 35
  472. Format : UTF-8
  473. Codec ID : S_TEXT/UTF8
  474. Codec ID/Info : UTF-8 Plain Text
  475. Duration : 38 min 24 s
  476. Bit rate : 97 b/s
  477. Count of elements : 595
  478. Stream size : 27.3 KiB (0%)
  479. Title : Svenska
  480. Language : Swedish
  481. Default : No
  482. Forced : No

  483. Text #34
  484. ID : 36
  485. Format : UTF-8
  486. Codec ID : S_TEXT/UTF8
  487. Codec ID/Info : UTF-8 Plain Text
  488. Duration : 38 min 24 s
  489. Bit rate : 323 b/s
  490. Count of elements : 648
  491. Stream size : 91.1 KiB (0%)
  492. Title : தமிழ்
  493. Language : Tamil
  494. Default : No
  495. Forced : No

  496. Text #35
  497. ID : 37
  498. Format : UTF-8
  499. Codec ID : S_TEXT/UTF8
  500. Codec ID/Info : UTF-8 Plain Text
  501. Duration : 38 min 24 s
  502. Bit rate : 268 b/s
  503. Count of elements : 647
  504. Stream size : 75.5 KiB (0%)
  505. Title : తెలుగు
  506. Language : Telugu
  507. Default : No
  508. Forced : No

  509. Text #36
  510. ID : 38
  511. Format : UTF-8
  512. Codec ID : S_TEXT/UTF8
  513. Codec ID/Info : UTF-8 Plain Text
  514. Duration : 38 min 24 s
  515. Bit rate : 255 b/s
  516. Count of elements : 654
  517. Stream size : 71.9 KiB (0%)
  518. Title : ไทย
  519. Language : Thai
  520. Default : No
  521. Forced : No

  522. Text #37
  523. ID : 39
  524. Format : UTF-8
  525. Codec ID : S_TEXT/UTF8
  526. Codec ID/Info : UTF-8 Plain Text
  527. Duration : 38 min 24 s
  528. Bit rate : 148 b/s
  529. Count of elements : 647
  530. Stream size : 41.9 KiB (0%)
  531. Title : українська
  532. Language : Ukrainian
  533. Default : No
  534. Forced : No

  535. Text #38
  536. ID : 40
  537. Format : UTF-8
  538. Codec ID : S_TEXT/UTF8
  539. Codec ID/Info : UTF-8 Plain Text
  540. Duration : 38 min 24 s
  541. Bit rate : 130 b/s
  542. Count of elements : 641
  543. Stream size : 36.6 KiB (0%)
  544. Title : Tiếng Việt
  545. Language : Vietnamese
  546. Default : No
  547. Forced : No

  548. Text #39
  549. ID : 41
  550. Format : UTF-8
  551. Codec ID : S_TEXT/UTF8
  552. Codec ID/Info : UTF-8 Plain Text
  553. Duration : 38 min 24 s
  554. Bit rate : 86 b/s
  555. Count of elements : 659
  556. Stream size : 24.2 KiB (0%)
  557. Title : 中文(繁體)
  558. Language : Chinese
  559. Default : No
  560. Forced : No

  561. Text #40
  562. ID : 42
  563. Format : UTF-8
  564. Codec ID : S_TEXT/UTF8
  565. Codec ID/Info : UTF-8 Plain Text
  566. Duration : 38 min 24 s
  567. Bit rate : 86 b/s
  568. Count of elements : 659
  569. Stream size : 24.2 KiB (0%)
  570. Title : 廣東話
  571. Language : Chinese
  572. Default : No
  573. Forced : No

  574. Text #41
  575. ID : 43
  576. Format : UTF-8
  577. Codec ID : S_TEXT/UTF8
  578. Codec ID/Info : UTF-8 Plain Text
  579. Duration : 38 min 24 s
  580. Bit rate : 88 b/s
  581. Count of elements : 659
  582. Stream size : 24.9 KiB (0%)
  583. Title : 中文(简体)
  584. Language : Chinese
  585. Default : No
  586. Forced : No
复制代码

亲爱的4k Dear.S01.2160p.ATVP.WEB-DL.x265.10bit.HDR.DD5.1.Atmos美剧纪录片下载

亲爱的4k Dear.S01.2160p.ATVP.WEB-DL.x265.10bit.HDR.DD5.1.Atmos【51.42 GB】
亲爱的4k Dear.S01.2160p.ATVP.WEB-DL.x265.10bit.HDR.DD5.1.Atmos-NiXON[rartv].torrent
(129.69 KB)
回复

使用道具 举报

发烧友评论2

倒序浏览
WARRENC 发表于 2020-6-29 02:44:42 | 显示全部楼层
清晰度好啊  
回复 支持 反对

使用道具 举报

您需要登录后才可以回帖 登录 | 立即注册

本版积分规则

在线客服

在线客服

服务时间 9:00—18:00

返回顶部

关注微信公众号第一时间推送精彩

官方微信

手机访问

Hao4K影音

专注4k家庭影音,提供家庭影音社区,家庭影音器材库,影音问答平台,影音商城,服务千万家庭影音用户。

本站内容部分由用户自主分享和转载自互联网,转载目的在于传递更多信息,并不代表本网赞同其观点和对其真实性负责。

如有侵权、违反国家法律政策行为,请联系我们,我们会第一时间及时清除和处理!

举报反馈邮箱:admin@hao4k.cn

Copyright  2019-2020  Hao4K影音粤公网安备 44030302001429号    ( 粤ICP备18155646号-1 )|网站地图