专注4K家庭影音, 服务千万家庭影音发烧友!

[美剧] 少年间谍4k Alex.Rider.S01.2160p.AMZN.WEB-DL.x265.10bit.HDR.DDP5.1美剧下载

大红色 发表于 2020-6-6 11:09:09 | 显示全部楼层
电视剧频道
电视剧封面:
电视剧名: 少年间谍4k
年  代: 2020  
国  家: 美国
类  别: 动作 犯罪 喜剧 
语  言: 英语
字  幕: 英文原版
上映日期: 2020-06-04
文件格式: mkv    
视频效果: 4K(3840x2160)    
资源大小: 37.41 GB
片  长: 45 分钟
导  演: 安德烈亚斯·普罗查斯卡 / 克里斯托弗·史密斯
剧情简介: 根据Anthony Horowitz同名小说改编。少年Alex Rider从小由叔叔抚养长大,当叔叔因车祸死亡后他才知道,父亲和他曾隶属于英国情/报/机/构MI-6。Alex自小时候起就被叔叔训练各种技能,被MI-6征召后成为一名少年间谍。
少年间谍亚历克斯 / 少年间谍艾列克 / 少年特工亚历克斯·莱德/少年间谍4k Alex.Rider.S01.2160p.AMZN.WEB-DL.x265.10bit.HDR.DDP5.1美剧信息
  1. Video
  2. ID : 3
  3. Format : HEVC
  4. Format/Info : High Efficiency Video Coding
  5. Format profile : Main 10@L5@Main
  6. HDR format : SMPTE ST 2094 App 4, Version 0
  7. Codec ID : V_MPEGH/ISO/HEVC
  8. Duration : 45 min 14 s
  9. Bit rate : 14.7 Mb/s
  10. Width : 3 840 pixels
  11. Height : 1 920 pixels
  12. Display aspect ratio : 2.000
  13. Frame rate mode : Constant
  14. Frame rate : 23.976 (24000/1001) FPS
  15. Standard : NTSC
  16. Color space : YUV
  17. Chroma subsampling : 4:2:0 (Type 2)
  18. Bit depth : 10 bits
  19. Bits/(Pixel*Frame) : 0.083
  20. Stream size : 4.64 GiB (96%)
  21. Default : Yes
  22. Forced : No
  23. Color range : Limited
  24. Color primaries : BT.2020
  25. Transfer characteristics : PQ
  26. Matrix coefficients : BT.2020 non-constant
  27. Mastering display color primaries : Display P3
  28. Mastering display luminance : min: 0.0001 cd/m2, max: 1000 cd/m2
  29. Maximum Content Light Level : 3902 cd/m2
  30. Maximum Frame-Average Light Level : 112 cd/m2

  31. Audio
  32. ID : 1
  33. Format : E-AC-3
  34. Format/Info : Enhanced AC-3
  35. Commercial name : Dolby Digital Plus
  36. Codec ID : A_EAC3
  37. Duration : 45 min 14 s
  38. Bit rate mode : Constant
  39. Bit rate : 640 kb/s
  40. Channel(s) : 6 channels
  41. Channel layout : L R C LFE Ls Rs
  42. Sampling rate : 48.0 kHz
  43. Frame rate : 31.250 FPS (1536 SPF)
  44. Compression mode : Lossy
  45. Stream size : 207 MiB (4%)
  46. Title : English
  47. Language : English
  48. Service kind : Complete Main
  49. Default : Yes
  50. Forced : No

  51. Text
  52. ID : 2
  53. Format : UTF-8
  54. Codec ID : S_TEXT/UTF8
  55. Codec ID/Info : UTF-8 Plain Text
  56. Duration : 44 min 17 s
  57. Bit rate : 63 b/s
  58. Count of elements : 713
  59. Stream size : 20.8 KiB (0%)
  60. Title : English [SDH]
  61. Language : English
  62. Default : No
  63. Forced : No

  64. Menu
  65. 00:00:00.000 : en:Yassen sneaks into a room
  66. 00:03:47.000 : en:Opening Credits
  67. 00:04:31.000 : en:Alex is at school
  68. 00:06:10.000 : en:Alex breaks into school
  69. 00:08:19.000 : en:Alex is in a car with Ian
  70. 00:09:04.000 : en:Alex backs to his home
  71. 00:11:28.000 : en:Ian works at home
  72. 00:14:01.000 : en:Alex talks with Tom
  73. 00:15:15.000 : en:Ian sees Martin
  74. 00:16:03.000 : en:Alex is at party
  75. 00:19:24.000 : en:Ian goes in an old building
  76. 00:22:51.000 : en:Alex receives a sad news
  77. 00:26:46.000 : en:Jones visits Alex
  78. 00:27:40.000 : en:Blunt investigates Martin
  79. 00:28:31.000 : en:Tom comes to Alex
  80. 00:32:10.000 : en:Alex looks for a clue
  81. 00:35:57.000 : en:Alex meets Blunt
  82. 00:39:54.000 : en:Alex has no choice
  83. 00:43:21.000 : en:Blunt waits for Alex
  84. 00:44:18.000 : en:End Credits
复制代码

少年间谍亚历克斯 / 少年间谍艾列克 / 少年特工亚历克斯·莱德/少年间谍4k Alex.Rider.S01.2160p.AMZN.WEB-DL.x265.10bit.HDR.DDP5.1美剧下载

少年间谍4k Alex.Rider.S01.2160p.AMZN.WEB-DL.x265.10bit.HDR.DDP5.1【37.41 GB】
少年间谍4k Alex.Rider.S01.2160p.AMZN.WEB-DL.x265.10bit.HDR.DDP5.1.torrent
(94.6 KB)
回复

使用道具 举报

发烧友评论11

倒序浏览
linglin 发表于 2020-7-27 18:32:01 | 显示全部楼层
不错,感谢分享!
回复 支持 反对

使用道具 举报

yangly 发表于 2020-6-29 11:11:21 | 显示全部楼层
感谢楼主分享,请问字幕在哪下
回复 支持 反对

使用道具 举报

littlebird 发表于 2020-6-29 08:45:50 | 显示全部楼层
没有字幕、找不到字幕就上字幕库,字幕很全的
回复 支持 反对

使用道具 举报

yangly 发表于 2020-6-28 11:13:33 | 显示全部楼层
感谢楼主分享,请问在哪可以下载字幕
回复 支持 反对

使用道具 举报

16650787077 发表于 2020-6-26 18:18:29 | 显示全部楼层
感谢楼主,谢谢分享
回复 支持 反对

使用道具 举报

chevalierjay 发表于 2020-6-8 09:24:19 Hao4K手机版 | 显示全部楼层
质量一般的剧都有4k,质量不错的李尸朝鲜却没有,什么世道。
回复 支持 反对

使用道具 举报

blackhead 发表于 2020-6-7 10:54:30 | 显示全部楼层
感謝樓主分享好片
回复 支持 反对

使用道具 举报

18520199909 发表于 2020-6-6 17:57:02 Hao4K手机版 | 显示全部楼层
挺好的资源,赞一个
回复 支持 反对

使用道具 举报

ZJG8237372 发表于 2020-6-6 17:46:02 | 显示全部楼层
木有字幕啊
回复 支持 反对

使用道具 举报

bino118 发表于 2020-6-6 12:38:19 | 显示全部楼层
赞!感谢楼主分享
回复 支持 反对

使用道具 举报

您需要登录后才可以回帖 登录 | 立即注册

本版积分规则

在线客服

在线客服

服务时间 9:00—18:00

返回顶部

关注微信公众号第一时间推送精彩

官方微信

手机访问

Hao4K影音

专注4k家庭影音,提供家庭影音社区,家庭影音器材库,影音问答平台,影音商城,服务千万家庭影音用户。

本站内容部分由用户自主分享和转载自互联网,转载目的在于传递更多信息,并不代表本网赞同其观点和对其真实性负责。

如有侵权、违反国家法律政策行为,请联系我们,我们会第一时间及时清除和处理!

举报反馈邮箱:admin@hao4k.cn

Copyright  2019-2020  Hao4K影音粤公网安备 44030302001429号    ( 粤ICP备18155646号-1 )|网站地图