专注4K家庭影音, 服务千万家庭影音发烧友!

[美剧] 男孩们的冒险书4k The.Dangerous.Book.for.Boys.S01.2160p.AMZN.WEB-DL.x265.10bit.HDR.DDP5.1美剧下载

大红色 发表于 2020-6-12 10:31:22 | 显示全部楼层
电视剧频道
电视剧封面:
电视剧名: 男孩们的冒险书4k
年  代: 2018  
国  家: 美国
类  别: 剧情 喜剧 
语  言: 英语
字  幕: 英文原版
上映日期: 2018-03-30
文件格式: mkv    
视频效果: 4K(3840x2160)    
资源大小: 16.94 GB
片  长: 30 分钟
导  演: 格雷格·莫托拉
剧情简介: 由Bryan Cranston和Greg Mottola制作的家庭喜剧《男孩们的冒险书 The Dangerous Book for Boys》过去被Amazon预订,现定于美国时间3月30日上线。该剧改编自Conn Iggulden和Hal Iggulden所 著的同名小说,原本在2014-2015开发季度由NBC台开发但失败,现在重新制作后被Amazon相中。
  剧中在发明家父亲Patrick 去世后,Wyatt与兄弟得到一本父亲留给他们的书 - 《男孩们的冒险书》,这书让Wyatt激发一个异想天开的奇幻世界,让他感受到与父亲的联系,并学习到应付现实生活的技巧。
  
  Chris Diamantopoulos将同时饰演两角,他除了饰演父亲角色Patrick外,也饰演双生兄弟Terry;Terry是个爱好玩乐﹑不爱规则﹑好心的后进生,在兄弟去世后来跟主角一起住。他那多采多姿的过去及好人性格,改善了这个家庭。
  Erinn Hayes饰演Liam(Kyan Zielinski饰)﹑Dash(Drew Logan Powell饰)﹑Wyatt(Gabriel Bateman饰)的母亲,努力地维持一个正常家庭,与三个儿子﹑Terry及家姑Tiffany(Swoosie Kurtz饰)同一屋檐下。
给男孩的冒险书/男孩们的冒险书4k The.Dangerous.Book.for.Boys.S01.2160p.AMZN.WEB-DL.x265.10bit.HDR.DDP5.1美剧信息
  1. Video
  2. ID : 1
  3. Format : HEVC
  4. Format/Info : High Efficiency Video Coding
  5. Format profile : Main 10@L5@Main
  6. HDR format : SMPTE ST 2094 App 4, Version 0
  7. Codec ID : V_MPEGH/ISO/HEVC
  8. Duration : 31 min 19 s
  9. Bit rate : 14.2 Mb/s
  10. Width : 3 840 pixels
  11. Height : 2 160 pixels
  12. Display aspect ratio : 16:9
  13. Frame rate mode : Constant
  14. Frame rate : 23.976 (24000/1001) FPS
  15. Standard : NTSC
  16. Color space : YUV
  17. Chroma subsampling : 4:2:0 (Type 2)
  18. Bit depth : 10 bits
  19. Bits/(Pixel*Frame) : 0.071
  20. Stream size : 3.11 GiB (96%)
  21. Default : Yes
  22. Forced : No
  23. Color range : Limited
  24. Color primaries : BT.2020
  25. Transfer characteristics : PQ
  26. Matrix coefficients : BT.2020 non-constant
  27. Mastering display color primaries : Display P3
  28. Mastering display luminance : min: 0.0001 cd/m2, max: 1000 cd/m2
  29. Maximum Content Light Level : 999 cd/m2
  30. Maximum Frame-Average Light Level : 393 cd/m2

  31. Audio
  32. ID : 2
  33. Format : E-AC-3
  34. Format/Info : Enhanced AC-3
  35. Commercial name : Dolby Digital Plus
  36. Codec ID : A_EAC3
  37. Duration : 31 min 19 s
  38. Bit rate mode : Constant
  39. Bit rate : 640 kb/s
  40. Channel(s) : 6 channels
  41. Channel layout : L R C LFE Ls Rs
  42. Sampling rate : 48.0 kHz
  43. Frame rate : 31.250 FPS (1536 SPF)
  44. Compression mode : Lossy
  45. Stream size : 143 MiB (4%)
  46. Title : English
  47. Language : English
  48. Service kind : Complete Main
  49. Default : Yes
  50. Forced : No

  51. Menu
  52. 00:00:00.000 : en:Amazon Original
  53. 00:00:06.000 : en:Beth calls a family meeting
  54. 00:04:11.000 : en:Opening Credits
  55. 00:04:51.000 : en:Uncle Terry is introduced to Wyatt
  56. 00:07:52.000 : en:A special gift for Wyatt and his brothers
  57. 00:11:28.000 : en:The first chapter for Wyatt
  58. 00:15:31.000 : en:The boys are back to school
  59. 00:18:50.000 : en:Tiffany explains to Wyatt why nobody talks about Patrick
  60. 00:23:26.000 : en:The McKennas decide to talk about Patrick
  61. 00:26:56.000 : en:The McKennas throw a party
  62. 00:29:43.000 : en:End Credits
复制代码

给男孩的冒险书/男孩们的冒险书4k The.Dangerous.Book.for.Boys.S01.2160p.AMZN.WEB-DL.x265.10bit.HDR.DDP5.1美剧下载
男孩们的冒险书4k The.Dangerous.Book.for.Boys.S01.2160p.AMZN.WEB-DL.x265.10bit.HDR.DDP5.1【16.94 GB】
男孩们的冒险书4k The.Dangerous.Book.for.Boys.S01.2160p.AMZN.WEB-DL.x265.10bit.HD.torrent
(85.73 KB)
回复

使用道具 举报

发烧友评论3

倒序浏览
jennying 发表于 2020-7-7 08:41:19 | 显示全部楼层
谢谢楼主分享!
回复 支持 反对

使用道具 举报

136161805 发表于 2020-6-17 13:42:05 | 显示全部楼层
好资源,谢谢楼主分享!
回复 支持 反对

使用道具 举报

您需要登录后才可以回帖 登录 | 立即注册

本版积分规则

在线客服

在线客服

服务时间 9:00—18:00

返回顶部

关注微信公众号第一时间推送精彩

官方微信

手机访问

Hao4K影音

专注4k家庭影音,提供家庭影音社区,家庭影音器材库,影音问答平台,影音商城,服务千万家庭影音用户。

本站内容部分由用户自主分享和转载自互联网,转载目的在于传递更多信息,并不代表本网赞同其观点和对其真实性负责。

如有侵权、违反国家法律政策行为,请联系我们,我们会第一时间及时清除和处理!

举报反馈邮箱:admin@hao4k.cn

Copyright  2019-2020  Hao4K影音粤公网安备 44030302001429号    ( 粤ICP备18155646号-1 )|网站地图