专注4K家庭影音, 服务千万家庭影音发烧友!

史泰登岛国王4K.The.King.of.Staten.Island.2020.HDR.2160p.WEB.H265电影下载

老顽童 发表于 2020-6-12 13:59:51 | 显示全部楼层
电影频道
电影封面:
片  名: 史泰登岛国王 4K
电影分类: 剧情 喜剧 
国  家: 美国 
年  代: 2020年
分 辨 率: 4K(3840x2160)
电影格式: MKV|REMUX 
画质标准: HDR 
音质编码: Dolby Digital Plus Audio 
电影声道: 5.1声道 
帧数/FPS: FPS
电影语言: 英文原版 
资源大小: 14.61 GB
导  演: 贾德·阿帕图
豆瓣评分: 6.2 分
中文字幕: -
剧情简介: 剧情灵感来自戴维森的真实生活,包括他那在911事件中去世的消防员父亲。主角为二十多岁的男子Scott,他跟妈妈住一起,梦想是当纹身师,但每天除了吸麻和朋友鬼混、暗暗勾搭青梅竹马之外无所事事。而妈妈找的新男友却引发了一系列事件,迫使开始Scott正视自己的人生。
史泰登岛国王/史丹顿岛之王 / Staten Island/The.King.of.Staten.Island.4K.2020.HDR.2160p.WEB.H265.电影信息
  1. Video
  2. ID : 1
  3. Format : HEVC
  4. Format/Info : High Efficiency Video Coding
  5. Format profile : Main 10@L5@Main
  6. HDR format : SMPTE ST 2086, HDR10 compatible
  7. Codec ID : V_MPEGH/ISO/HEVC
  8. Duration : 2 h 17 min
  9. Bit rate : 14.9 Mb/s
  10. Width : 3 840 pixels
  11. Height : 2 160 pixels
  12. Display aspect ratio : 16:9
  13. Frame rate mode : Constant
  14. Frame rate : 23.976 (24000/1001) FPS
  15. Color space : YUV
  16. Chroma subsampling : 4:2:0 (Type 2)
  17. Bit depth : 10 bits
  18. Bits/(Pixel*Frame) : 0.075
  19. Stream size : 14.3 GiB (98%)
  20. Writing library : x265 3.0:[Linux][GCC 4.8.5][64 bit] 10bit
  21. Encoding settings : cpuid=1111039 / frame-threads=6 / wpp / no-pmode / no-pme / no-psnr / no-ssim / log-level=2 / input-csp=1 / input-res=3840x2160 / interlace=0 / total-frames=0 / level-idc=50 / high-tier=1 / uhd-bd=0 / ref=3 / no-allow-non-conformance / repeat-headers / annexb / no-aud / no-hrd / info / hash=0 / no-temporal-layers / no-open-gop / min-keyint=48 / keyint=48 / gop-lookahead=0 / bframes=4 / b-adapt=2 / b-pyramid / bframe-bias=0 / rc-lookahead=48 / lookahead-slices=4 / scenecut=40 / radl=0 / no-splice / no-intra-refresh / ctu=64 / min-cu-size=8 / rect / no-amp / max-tu-size=32 / tu-inter-depth=1 / tu-intra-depth=1 / limit-tu=0 / rdoq-level=2 / dynamic-rd=0.00 / no-ssim-rd / signhide / no-tskip / nr-intra=0 / nr-inter=0 / no-constrained-intra / strong-intra-smoothing / max-merge=3 / limit-refs=3 / limit-modes / me=2 / subme=3 / merange=57 / temporal-mvp / weightp / no-weightb / no-analyze-src-pics / deblock=0:0 / no-sao / no-sao-non-deblock / rd=4 / no-early-skip / no-rskip / no-fast-intra / no-tskip-fast / no-cu-lossless / no-b-intra / no-splitrd-skip / rdpenalty=0 / psy-rd=4.00 / psy-rdoq=10.00 / no-rd-refine / no-lossless / cbqpoffs=0 / crqpoffs=0 / rc=abr / bitrate=15000 / qcomp=0.60 / qpstep=1 / stats-write=0 / stats-read=0 / vbv-maxrate=22500 / vbv-bufsize=22500 / vbv-init=0.9 / ipratio=1.10 / pbratio=1.00 / aq-mode=0 / aq-strength=0.00 / no-cutree / zone-count=0 / no-strict-cbr / qg-size=32 / rc-grain / qpmax=69 / qpmin=0 / const-vbv / sar=1 / overscan=0 / videoformat=5 / range=0 / colorprim=9 / transfer=16 / colormatrix=9 / chromaloc=1 / chromaloc-top=2 / chromaloc-bottom=2 / display-window=0 / master-display=G(13250,34500)B(7500,3000)R(34000,16000)WP(15635,16450)L(10000000,50) / max-cll=495,49 / min-luma=0 / max-luma=1023 / log2-max-poc-lsb=8 / vui-timing-info / vui-hrd-info / slices=1 / no-opt-qp-pps / no-opt-ref-list-length-pps / no-multi-pass-opt-rps / scenecut-bias=0.05 / no-opt-cu-delta-qp / no-aq-motion / hdr / no-hdr-opt / no-dhdr10-opt / no-idr-recovery-sei / analysis-reuse-level=5 / scale-factor=0 / refine-intra=0 / refine-inter=0 / refine-mv=0 / refine-ctu-distortion=0 / no-limit-sao / ctu-info=0 / no-lowpass-dct / refine-analysis-type=0 / copy-pic=1 / max-ausize-factor=1.0 / no-dynamic-refine / no-single-sei / no-hevc-aq / qp-adaptation-range=1.00
  22. Default : Yes
  23. Forced : No
  24. Color range : Limited
  25. Color primaries : BT.2020
  26. Transfer characteristics : PQ
  27. Matrix coefficients : BT.2020 non-constant
  28. Mastering display color primaries : Display P3
  29. Mastering display luminance : min: 0.0050 cd/m2, max: 1000 cd/m2
  30. Maximum Content Light Level : 495 cd/m2
  31. Maximum Frame-Average Light Level : 49 cd/m2

  32. Audio
  33. ID : 2
  34. Format : E-AC-3
  35. Format/Info : Enhanced AC-3
  36. Commercial name : Dolby Digital Plus
  37. Codec ID : A_EAC3
  38. Duration : 2 h 17 min
  39. Bit rate mode : Constant
  40. Bit rate : 256 kb/s
  41. Channel(s) : 6 channels
  42. Channel layout : L R C LFE Ls Rs
  43. Sampling rate : 48.0 kHz
  44. Frame rate : 31.250 FPS (1536 SPF)
  45. Compression mode : Lossy
  46. Stream size : 251 MiB (2%)
  47. Service kind : Complete Main
  48. Default : Yes
  49. Forced : No

  50. Text
  51. ID : 3
  52. Format : UTF-8
  53. Codec ID : S_TEXT/UTF8
  54. Codec ID/Info : UTF-8 Plain Text
  55. Duration : 2 h 17 min
  56. Bit rate : 120 b/s
  57. Count of elements : 3746
  58. Stream size : 121 KiB (0%)
  59. Language : English
  60. Default : No
  61. Forced : No
复制代码

史泰登岛国王4K/史丹顿岛之王 / Staten Island/The.King.of.Staten.Island.4K.2020.HDR.2160p.WEB.H265.电影下载
史泰登岛国王4K.The.King.of.Staten.Island.2020.HDR.2160p.WEB.H265【14.61 GB】
史泰登岛国王4K.The.King.of.Staten.Island.2020.HDR.2160p.WEB.H265-.torrent
(73.81 KB, 售价: 2 K币)

AI推荐主题

回复

使用道具 举报

发烧友评论30

倒序浏览
chuan0605010 发表于 2020-8-3 17:31:46 | 显示全部楼层
谢谢楼主的分享了。
回复 支持 反对

使用道具 举报

surperman 发表于 2020-7-11 13:04:07 | 显示全部楼层
谢谢楼主分享资源,辛苦
回复 支持 反对

使用道具 举报

surperman 发表于 2020-7-11 13:00:56 | 显示全部楼层
谢谢楼主分享资源,辛苦
回复 支持 反对

使用道具 举报

surperman 发表于 2020-7-11 13:00:27 | 显示全部楼层
谢谢楼主分享资源,辛苦
回复 支持 反对

使用道具 举报

surperman 发表于 2020-7-11 12:59:52 | 显示全部楼层
谢谢楼主分享资源,辛苦
回复 支持 反对

使用道具 举报

surperman 发表于 2020-7-11 12:59:29 | 显示全部楼层
谢谢楼主分享资源,辛苦
回复 支持 反对

使用道具 举报

surperman 发表于 2020-7-11 12:59:07 | 显示全部楼层
谢谢楼主分享资源,辛苦
回复 支持 反对

使用道具 举报

volcan_jing 发表于 2020-7-9 15:11:26 | 显示全部楼层
谢楼主分享资源
回复 支持 反对

使用道具 举报

aatt545 发表于 2020-7-7 14:06:18 | 显示全部楼层
怎么下载呢亲
回复 支持 反对

使用道具 举报

a549066123 发表于 2020-7-4 10:41:30 | 显示全部楼层
:lol:lol:lol:lol:lol:lol:lol:lol:lol
回复 支持 反对

使用道具 举报

panbell 发表于 2020-7-1 17:30:29 | 显示全部楼层
谢楼主分享
回复 支持 反对

使用道具 举报

panbell 发表于 2020-6-30 15:58:08 | 显示全部楼层
多谢分享,支持一下!
回复 支持 反对

使用道具 举报

16650787077 发表于 2020-6-26 18:41:56 | 显示全部楼层
谢谢楼主分享资源,辛苦
回复 支持 反对

使用道具 举报

lufeilhq 发表于 2020-6-23 16:17:22 | 显示全部楼层
谢谢楼主的资源!~
回复 支持 反对

使用道具 举报

您需要登录后才可以回帖 登录 | 立即注册

本版积分规则

在线客服

在线客服

服务时间 9:00—18:00

返回顶部

关注微信公众号第一时间推送精彩

官方微信

手机访问

Hao4K影音

专注4k家庭影音,提供家庭影音社区,家庭影音器材库,影音问答平台,影音商城,服务千万家庭影音用户。

本站内容部分由用户自主分享和转载自互联网,转载目的在于传递更多信息,并不代表本网赞同其观点和对其真实性负责。

如有侵权、违反国家法律政策行为,请联系我们,我们会第一时间及时清除和处理!

举报反馈邮箱:admin@hao4k.cn

Copyright  2019-2020  Hao4K影音粤公网安备 44030302001429号    ( 粤ICP备18155646号-1 )|网站地图