专注4K家庭影音, 服务千万家庭影音发烧友!

阿特米斯的奇幻历险4k.Artemis.Fowl.2020.HDR.2160p.WEB.H265电影下载

 关闭
老顽童 发表于 2020-6-14 17:48:30 | 显示全部楼层
电影频道
电影封面:
片  名: 阿特米斯的奇幻历险 4K
电影分类: 冒险 奇幻 
国  家: 美国 
年  代: 2020年
分 辨 率: 4K(3840x2160)
电影格式: MKV|REMUX 
画质标准: HDR10 
音质编码: Dolby Digital Plus Audio 
电影声道: 5.1声道 
帧数/FPS: FPS
电影语言: 英文原版 
资源大小: 11.02 GB
导  演: 肯尼思·布拉纳
豆瓣评分: 暂无 分
中文字幕: /thread-47862-1-1.html
剧情简介: 改编自爱尔兰作家欧因·科弗的经典奇幻小说,讲述12岁的法尔犯罪帝国继承人阿特米斯·法尔二世为了寻找失踪的父亲,与精灵族展开了力量与诡计的斗争。
阿特米斯的奇幻历险4k.Artemis.Fowl.2020.HDR.2160p.WEB.H265电影信息
  1. Video
  2. ID : 1
  3. Format : HEVC
  4. Format/Info : High Efficiency Video Coding
  5. Format profile : Main 10@L5@High
  6. HDR format : SMPTE ST 2086, HDR10 compatible
  7. Codec ID : V_MPEGH/ISO/HEVC
  8. Duration : 1 h 34 min
  9. Bit rate : 16.4 Mb/s
  10. Width : 3 840 pixels
  11. Height : 2 160 pixels
  12. Display aspect ratio : 16:9
  13. Frame rate mode : Constant
  14. Frame rate : 23.976 (24000/1001) FPS
  15. Color space : YUV
  16. Chroma subsampling : 4:2:0
  17. Bit depth : 10 bits
  18. Bits/(Pixel*Frame) : 0.083
  19. Stream size : 10.8 GiB (98%)
  20. Default : Yes
  21. Forced : No
  22. Color range : Limited
  23. Color primaries : BT.2020
  24. Transfer characteristics : PQ
  25. Matrix coefficients : BT.2020 non-constant
  26. Mastering display color primaries : Display P3
  27. Mastering display luminance : min: 0.0000 cd/m2, max: 1000 cd/m2

  28. Audio
  29. ID : 2
  30. Format : E-AC-3
  31. Format/Info : Enhanced AC-3
  32. Commercial name : Dolby Digital Plus
  33. Codec ID : A_EAC3
  34. Duration : 1 h 34 min
  35. Bit rate mode : Constant
  36. Bit rate : 256 kb/s
  37. Channel(s) : 6 channels
  38. Channel layout : L R C LFE Ls Rs
  39. Sampling rate : 48.0 kHz
  40. Frame rate : 31.250 FPS (1536 SPF)
  41. Compression mode : Lossy
  42. Stream size : 173 MiB (2%)
  43. Title : English
  44. Language : English
  45. Service kind : Complete Main
  46. Default : Yes
  47. Forced : No

  48. Text #1
  49. ID : 3
  50. Format : UTF-8
  51. Codec ID : S_TEXT/UTF8
  52. Codec ID/Info : UTF-8 Plain Text
  53. Duration : 1 h 27 min
  54. Bit rate : 63 b/s
  55. Count of elements : 1515
  56. Stream size : 40.7 KiB (0%)
  57. Title : English
  58. Language : English
  59. Default : No
  60. Forced : No

  61. Text #2
  62. ID : 4
  63. Format : UTF-8
  64. Codec ID : S_TEXT/UTF8
  65. Codec ID/Info : UTF-8 Plain Text
  66. Duration : 1 h 33 min
  67. Bit rate : 56 b/s
  68. Count of elements : 1050
  69. Stream size : 38.4 KiB (0%)
  70. Title : Dutch
  71. Language : Dutch
  72. Default : No
  73. Forced : No

  74. Text #3
  75. ID : 5
  76. Format : UTF-8
  77. Codec ID : S_TEXT/UTF8
  78. Codec ID/Info : UTF-8 Plain Text
  79. Duration : 1 h 33 min
  80. Bit rate : 54 b/s
  81. Count of elements : 1270
  82. Stream size : 37.6 KiB (0%)
  83. Title : French
  84. Language : French
  85. Default : No
  86. Forced : No

  87. Text #4
  88. ID : 6
  89. Format : UTF-8
  90. Codec ID : S_TEXT/UTF8
  91. Codec ID/Info : UTF-8 Plain Text
  92. Duration : 1 h 33 min
  93. Bit rate : 58 b/s
  94. Count of elements : 1414
  95. Stream size : 40.1 KiB (0%)
  96. Title : German
  97. Language : German
  98. Default : No
  99. Forced : No

  100. Text #5
  101. ID : 7
  102. Format : UTF-8
  103. Codec ID : S_TEXT/UTF8
  104. Codec ID/Info : UTF-8 Plain Text
  105. Duration : 1 h 33 min
  106. Bit rate : 57 b/s
  107. Count of elements : 1360
  108. Stream size : 39.6 KiB (0%)
  109. Title : Italian
  110. Language : Italian
  111. Default : No
  112. Forced : No

  113. Text #6
  114. ID : 8
  115. Format : UTF-8
  116. Codec ID : S_TEXT/UTF8
  117. Codec ID/Info : UTF-8 Plain Text
  118. Duration : 1 h 33 min
  119. Bit rate : 52 b/s
  120. Count of elements : 1303
  121. Stream size : 35.9 KiB (0%)
  122. Title : Polish
  123. Language : Polish
  124. Default : No
  125. Forced : No

  126. Text #7
  127. ID : 9
  128. Format : UTF-8
  129. Codec ID : S_TEXT/UTF8
  130. Codec ID/Info : UTF-8 Plain Text
  131. Duration : 1 h 33 min
  132. Bit rate : 59 b/s
  133. Count of elements : 1343
  134. Stream size : 41.0 KiB (0%)
  135. Title : Portuguese
  136. Language : Portuguese
  137. Default : No
  138. Forced : No

  139. Text #8
  140. ID : 10
  141. Format : UTF-8
  142. Codec ID : S_TEXT/UTF8
  143. Codec ID/Info : UTF-8 Plain Text
  144. Duration : 1 h 33 min
  145. Bit rate : 60 b/s
  146. Count of elements : 1361
  147. Stream size : 41.4 KiB (0%)
  148. Title : Brazilian Portuguese
  149. Language : Portuguese
  150. Default : No
  151. Forced : No

  152. Text #9
  153. ID : 11
  154. Format : UTF-8
  155. Codec ID : S_TEXT/UTF8
  156. Codec ID/Info : UTF-8 Plain Text
  157. Duration : 1 h 27 min
  158. Bit rate : 68 b/s
  159. Count of elements : 1364
  160. Stream size : 43.6 KiB (0%)
  161. Title : Spanish
  162. Language : Spanish
  163. Default : No
  164. Forced : No

  165. Text #10
  166. ID : 12
  167. Format : UTF-8
  168. Codec ID : S_TEXT/UTF8
  169. Codec ID/Info : UTF-8 Plain Text
  170. Duration : 1 h 33 min
  171. Bit rate : 59 b/s
  172. Count of elements : 1362
  173. Stream size : 40.7 KiB (0%)
  174. Title : European Spanish
  175. Language : Spanish
  176. Default : No
  177. Forced : No
复制代码

阿特米斯的奇幻历险4k.Artemis.Fowl.2020.HDR.2160p.WEB.H265电影下载
阿特米斯的奇幻历险4k.Artemis.Fowl.2020.HDR.2160p.WEB.H265【11.02 GB】

[Hao4K]阿特米斯的奇幻历险4K.Artemis.Fowl.2020.HDR.2160p.WEB.H265-SECRECY.torrent
(55.77 KB)
回复

使用道具 举报

发烧友评论4

倒序浏览
abigaier 发表于 2020-6-14 18:33:18 | 显示全部楼层
感謝分享
回复 支持 反对

使用道具 举报

J_Phoenix 发表于 2020-6-14 18:09:56 | 显示全部楼层
多谢分享,支持一下!
回复 支持 反对

使用道具 举报

njcy 发表于 2020-6-14 18:03:43 | 显示全部楼层
这个必须支持,谢谢了。
回复 支持 反对

使用道具 举报

您需要登录后才可以回帖 登录 | 立即注册

本版积分规则

在线客服

在线客服

服务时间 9:00—18:00

返回顶部

关注微信公众号第一时间推送精彩

官方微信

手机访问

Hao4K影音

专注4k家庭影音,提供家庭影音社区,家庭影音器材库,影音问答平台,影音商城,服务千万家庭影音用户。

本站内容部分由用户自主分享和转载自互联网,转载目的在于传递更多信息,并不代表本网赞同其观点和对其真实性负责。

如有侵权、违反国家法律政策行为,请联系我们,我们会第一时间及时清除和处理!

举报反馈邮箱:admin@hao4k.cn

Copyright  2019-2020  Hao4K影音粤公网安备 44030302001429号    ( 粤ICP备18155646号-1 )|网站地图