专注4K家庭影音, 服务千万家庭影音发烧友!

在线
客服

QQ咨询服务时间: 9:00-21:00

选择下列客服马上在线沟通:

快速
发帖

暂无
7*24小时客服服务热线

关注
微信

顶部

空中危机/高空7500 4K.7500.2019.HDR.2160p.WEB.H265.电影下载

 
老顽童 发表于 2020-6-19 12:23:12 | 显示全部楼层
电影频道
电影封面:
片  名: 高空7500 4K
电影分类: 惊悚 剧情 
国  家: 美国 德国 
年  代: 2019年 年
分 辨 率: 4K(3840x2160)
电影格式: MKV|REMUX 
画质标准: 其他 
音质编码: Dolby Digital Plus Audio 其他AAC 
电影声道: 5.1声道 
帧数/FPS: FPS
电影语言: 英文原版 
资源大小: 9.59 GB
导  演: 帕特里克·沃尔拉斯
豆瓣评分: 5.3 分
中文字幕: -
剧情简介: 莱维特饰演副驾驶员Tobias Ellis,在柏林飞巴黎的商务之旅途中,遭到用玻璃瓶武装的恐怖分子劫机,Ellis必须要保证全机人安危,同时与恐怖分子谈判。7500是飞行员在遇到劫机时使用的代码,它在不提示劫机者的情况下,无声地向空中交通管制员发出警报。
空中危机/高空7500 4K.7500.2019.HDR.2160p.WEB.H265.电影信息
  1. Video
  2. ID : 1
  3. Format : HEVC
  4. Format/Info : High Efficiency Video Coding
  5. Format profile : Main 10@L5@Main
  6. HDR format : SMPTE ST 2094 App 4, Version 0
  7. Codec ID : V_MPEGH/ISO/HEVC
  8. Duration : 1 h 32 min
  9. Bit rate : 14.2 Mb/s
  10. Width : 3 840 pixels
  11. Height : 1 600 pixels
  12. Display aspect ratio : 2.40:1
  13. Frame rate mode : Constant
  14. Frame rate : 23.976 (24000/1001) FPS
  15. Standard : NTSC
  16. Color space : YUV
  17. Chroma subsampling : 4:2:0 (Type 2)
  18. Bit depth : 10 bits
  19. Bits/(Pixel*Frame) : 0.096
  20. Stream size : 9.17 GiB (96%)
  21. Default : Yes
  22. Forced : No
  23. Color range : Limited
  24. Color primaries : BT.2020
  25. Transfer characteristics : PQ
  26. Matrix coefficients : BT.2020 non-constant
  27. Mastering display color primaries : Display P3
  28. Mastering display luminance : min: 0.0001 cd/m2, max: 1000 cd/m2
  29. Maximum Content Light Level : 139 cd/m2
  30. Maximum Frame-Average Light Level : 1251 cd/m2

  31. Audio
  32. ID : 2
  33. Format : E-AC-3
  34. Format/Info : Enhanced AC-3
  35. Commercial name : Dolby Digital Plus
  36. Codec ID : A_EAC3
  37. Duration : 1 h 32 min
  38. Bit rate mode : Constant
  39. Bit rate : 640 kb/s
  40. Channel(s) : 6 channels
  41. Channel layout : L R C LFE Ls Rs
  42. Sampling rate : 48.0 kHz
  43. Frame rate : 31.250 FPS (1536 SPF)
  44. Compression mode : Lossy
  45. Stream size : 425 MiB (4%)
  46. Title : English
  47. Language : English
  48. Service kind : Complete Main
  49. Default : No
  50. Forced : No

  51. Text #1
  52. ID : 3
  53. Format : UTF-8
  54. Codec ID : S_TEXT/UTF8
  55. Codec ID/Info : UTF-8 Plain Text
  56. Duration : 1 h 21 min
  57. Bit rate : 18 b/s
  58. Count of elements : 339
  59. Stream size : 11.0 KiB (0%)
  60. Title : English
  61. Language : English
  62. Default : Yes
  63. Forced : No

  64. Text #2
  65. ID : 4
  66. Format : UTF-8
  67. Codec ID : S_TEXT/UTF8
  68. Codec ID/Info : UTF-8 Plain Text
  69. Duration : 1 h 31 min
  70. Bit rate : 60 b/s
  71. Count of elements : 1288
  72. Stream size : 40.3 KiB (0%)
  73. Title : English (SDH)
  74. Language : English
  75. Default : No
  76. Forced : No

  77. Menu
  78. 00:00:00.000 : en:1. Studio Logo
  79. 00:00:55.000 : en:Scene 2
  80. 00:03:15.000 : en:3. Title Sequence
  81. 00:03:22.000 : en:Scene 4
  82. 00:10:35.000 : en:Scene 5
  83. 00:16:00.000 : en:Scene 6
  84. 00:28:56.000 : en:Scene 7
  85. 00:39:27.000 : en:Scene 8
  86. 00:43:53.000 : en:Scene 9
  87. 00:53:06.000 : en:Scene 10
  88. 01:03:30.000 : en:Scene 11
  89. 01:10:24.000 : en:Scene 12
  90. 01:15:42.000 : en:Scene 13
  91. 01:21:22.000 : en:Scene 14
  92. 01:25:54.000 : en:15. End Credits
复制代码
空中危机/高空7500 4K.7500.2019.HDR.2160p.WEB.H265.电影下载
高空7500 4K.7500.2019.HDR.2160p.WEB.H265【9.59 GB】
[Hao4k]高空7500.4k.7500.2019.HDR.2160p.WEB.H265.torrent
(48.44 KB)
回复

使用道具 举报

发烧友评论76

倒序浏览
张大王111 发表于 3 天前 | 显示全部楼层
、感谢楼主分享!!!
回复 支持 反对

使用道具 举报

sywudntsyw 发表于 5 天前 | 显示全部楼层
感谢分享,不错的电影
回复 支持 反对

使用道具 举报

深蓝色的爱 发表于 7 天前 | 显示全部楼层

谢谢楼主分享资源
回复 支持 反对

使用道具 举报

win404918613 发表于 7 天前 | 显示全部楼层
喜欢这类题材的影片,下来看看,谢谢分享!
回复 支持 反对

使用道具 举报

jcm1966 发表于 2020-7-3 15:15:51 | 显示全部楼层
谢谢,估计会有惊喜
回复 支持 反对

使用道具 举报

1973 发表于 2020-7-2 19:06:47 | 显示全部楼层

感谢分享
回复 支持 反对

使用道具 举报

windflowerzl 发表于 2020-7-1 20:53:53 | 显示全部楼层
感谢楼主分享
回复 支持 反对

使用道具 举报

castral 发表于 2020-7-1 14:03:34 | 显示全部楼层

多谢楼主分享
回复 支持 反对

使用道具 举报

kkwow9 发表于 2020-6-30 17:42:21 | 显示全部楼层
喜欢这类题材的影片
非常感谢大佬的分享!
回复 支持 反对

使用道具 举报

se7entao 发表于 2020-6-30 00:09:28 来自手机 | 显示全部楼层
多谢楼主分享
回复 支持 反对

使用道具 举报

您需要登录后才可以回帖 登录 | 立即注册

本版积分规则


0关注

57粉丝

57帖子

热门主题
社区广告

关注微信公众号第一时间推送精彩

官方微信

手机访问

Hao4K影音

专注4k家庭影音,提供家庭影音社区,家庭影音器材库,影音问答平台,影音商城,服务千万家庭影音用户。

本站内容部分由用户自主分享和转载自互联网,转载目的在于传递更多信息,并不代表本网赞同其观点和对其真实性负责。

如有侵权、违反国家法律政策行为,请联系我们,我们会第一时间及时清除和处理!

举报反馈邮箱:admin@hao4k.cn

Copyright  2019-2020  Hao4K影音粤公网安备 44030302001429号     ( 粤ICP备18155646号-1 )|网站地图